<?xml version="1.0" standalone="no"?>
<!DOCTYPE svg PUBLIC "-//W3C//DTD SVG 1.1//EN" "http://www.w3.org/Graphics/SVG/1.1/DTD/svg11.dtd" >
<svg xmlns="http://www.w3.org/2000/svg">
<metadata>Generated by IcoMoon</metadata>
<defs>
<font id="icomoon" horiz-adv-x="1024">
<font-face units-per-em="1024" ascent="960" descent="-64" />
<missing-glyph horiz-adv-x="1024" />
<glyph unicode="&#x20;" horiz-adv-x="512" d="" />
<glyph unicode="&#xe00e;" glyph-name="loop6" d="M512 170.667v128l170-170-170-172v128q-140 0-241 101t-101 241q0 100 54 182l62-62q-30-54-30-120 0-106 75-181t181-75zM512 768.667q140 0 241-101t101-241q0-100-54-182l-62 62q30 54 30 120 0 106-75 181t-181 75v-128l-170 170 170 172v-128z" />
<glyph unicode="&#xe023;" glyph-name="repeat" d="M726 212.667v172h84v-256h-512v-128l-170 170 170 170v-128h428zM298 640.667v-172h-84v256h512v128l170-170-170-170v128h-428z" />
<glyph unicode="&#xe034;" glyph-name="web" d="M854 170.667v384h-172v-384h172zM640 384.667v170h-470v-170h470zM640 170.667v170h-470v-170h470zM854 768.667q34 0 59-26t25-60v-512q0-34-25-60t-59-26h-684q-34 0-59 26t-25 60v512q0 34 25 60t59 26h684z" />
<glyph unicode="&#xe04c;" glyph-name="email" d="M854 596.667v86l-342-214-342 214v-86l342-212zM854 768.667q34 0 59-26t25-60v-512q0-34-25-60t-59-26h-684q-34 0-59 26t-25 60v512q0 34 25 60t59 26h684z" />
<glyph unicode="&#xe069;" glyph-name="add3" d="M810 384.667h-256v-256h-84v256h-256v84h256v256h84v-256h256v-84z" />
<glyph unicode="&#xe07c;" glyph-name="mail8" d="M854 596.667v86l-342-214-342 214v-86l342-212zM854 768.667q34 0 59-26t25-60v-512q0-34-25-60t-59-26h-684q-34 0-59 26t-25 60v512q0 34 25 60t59 26h684z" />
<glyph unicode="&#xe085;" glyph-name="save" d="M640 554.667v170h-426v-170h426zM512 128.667q52 0 90 38t38 90-38 90-90 38-90-38-38-90 38-90 90-38zM726 810.667l170-170v-512q0-34-26-60t-60-26h-596q-36 0-61 26t-25 60v596q0 34 25 60t61 26h512z" />
<glyph unicode="&#xe087;" glyph-name="send" d="M86 42.667v298l640 86-640 86v298l896-384z" />
<glyph unicode="&#xe11e;" glyph-name="mouse5" d="M470 892.667v-338h-300q0 130 87 226t213 112zM170 298.667v170h684v-170q0-140-101-241t-241-101-241 101-101 241zM554 892.667q126-16 213-112t87-226h-300v338z" />
<glyph unicode="&#xe12a;" glyph-name="tablet4" d="M810 170.667v512h-596v-512h596zM896 768.667q34 0 60-26t26-60l-2-512q0-34-25-60t-59-26h-768q-34 0-60 26t-26 60v512q0 34 26 60t60 26h768z" />
<glyph unicode="&#xe12e;" glyph-name="tv6" d="M896 212.667v512h-768v-512h768zM896 810.667q34 0 60-26t26-60l-2-512q0-34-25-59t-59-25h-214v-86h-340v86h-214q-34 0-60 25t-26 59v512q0 34 26 60t60 26h768z" />
<glyph unicode="&#xe165;" glyph-name="filter_1" d="M896 212.667v598h-598v-598h598zM896 896.667q34 0 60-26t26-60v-598q0-34-26-59t-60-25h-598q-34 0-59 25t-25 59v598q0 34 25 60t59 26h598zM598 298.667v342h-86v84h170v-426h-84zM128 724.667v-682h682v-86h-682q-34 0-60 26t-26 60v682h86z" />
<glyph unicode="&#xe166;" glyph-name="filter_2" d="M726 384.667v-86h-256v170q0 36 25 61t59 25h86v86h-170v84h170q36 0 61-24t25-60v-86q0-36-26-61t-60-25h-86v-84h172zM896 212.667v598h-598v-598h598zM896 896.667q34 0 60-26t26-60v-598q0-34-26-59t-60-25h-598q-34 0-59 25t-25 59v598q0 34 25 60t59 26h598zM128 724.667v-682h682v-86h-682q-34 0-60 26t-26 60v682h86z" />
<glyph unicode="&#xe167;" glyph-name="filter_3" d="M726 384.667q0-36-26-61t-60-25h-170v86h170v84h-86v86h86v86h-170v84h170q36 0 61-24t25-60v-64q0-26-19-45t-45-19q26 0 45-19t19-45v-64zM128 724.667v-682h682v-86h-682q-34 0-60 26t-26 60v682h86zM896 212.667v598h-598v-598h598zM896 896.667q34 0 60-26t26-60v-598q0-34-26-59t-60-25h-598q-34 0-59 25t-25 59v598q0 34 25 60t59 26h598z" />
<glyph unicode="&#xe168;" glyph-name="filter5" d="M896 212.667v598h-598v-598h598zM896 896.667q34 0 60-26t26-60v-598q0-34-26-59t-60-25h-598q-34 0-59 25t-25 59v598q0 34 25 60t59 26h598zM128 724.667v-682h682v-86h-682q-34 0-60 26t-26 60v682h86zM680 498.667l152-200h-470l118 150 84-100z" />
<glyph unicode="&#xe169;" glyph-name="filter_4" d="M896 212.667v598h-598v-598h598zM896 896.667q34 0 60-26t26-60v-598q0-34-26-59t-60-25h-598q-34 0-59 25t-25 59v598q0 34 25 60t59 26h598zM640 298.667v170h-170v256h84v-170h86v170h86v-426h-86zM128 724.667v-682h682v-86h-682q-34 0-60 26t-26 60v682h86z" />
<glyph unicode="&#xe16a;" glyph-name="filter_5" d="M726 384.667q0-36-26-61t-60-25h-170v86h170v84h-170v256h256v-84h-172v-86h86q34 0 60-25t26-61v-84zM128 724.667v-682h682v-86h-682q-34 0-60 26t-26 60v682h86zM896 212.667v598h-598v-598h598zM896 896.667q34 0 60-26t26-60v-598q0-34-26-59t-60-25h-598q-34 0-59 25t-25 59v598q0 34 25 60t59 26h598z" />
<glyph unicode="&#xe16b;" glyph-name="filter_6" d="M554 468.667v-84h86v84h-86zM554 298.667q-34 0-59 25t-25 61v256q0 36 25 60t59 24h172v-84h-172v-86h86q34 0 60-25t26-61v-84q0-36-26-61t-60-25h-86zM896 212.667v598h-598v-598h598zM896 896.667q34 0 60-26t26-60v-598q0-34-26-59t-60-25h-598q-34 0-59 25t-25 59v598q0 34 25 60t59 26h598zM128 724.667v-682h682v-86h-682q-34 0-60 26t-26 60v682h86z" />
<glyph unicode="&#xe16c;" glyph-name="filter_7" d="M554 298.667h-84l170 342h-170v84h256v-84zM896 212.667v598h-598v-598h598zM896 896.667q34 0 60-26t26-60v-598q0-34-26-59t-60-25h-598q-34 0-59 25t-25 59v598q0 34 25 60t59 26h598zM128 724.667v-682h682v-86h-682q-34 0-60 26t-26 60v682h86z" />
<glyph unicode="&#xe16d;" glyph-name="filter_8" d="M554 468.667v-84h86v84h-86zM554 640.667v-86h86v86h-86zM554 298.667q-34 0-59 25t-25 61v64q0 26 19 45t45 19q-26 0-45 19t-19 45v64q0 36 25 60t59 24h86q36 0 61-24t25-60v-64q0-26-19-45t-45-19q26 0 45-19t19-45v-64q0-36-26-61t-60-25h-86zM896 212.667v598h-598v-598h598zM896 896.667q34 0 60-26t26-60v-598q0-34-26-59t-60-25h-598q-34 0-59 25t-25 59v598q0 34 25 60t59 26h598zM128 724.667v-682h682v-86h-682q-34 0-60 26t-26 60v682h86z" />
<glyph unicode="&#xe16e;" glyph-name="filter_9" d="M640 554.667v86h-86v-86h86zM640 724.667q36 0 61-24t25-60v-256q0-36-26-61t-60-25h-170v86h170v84h-86q-34 0-59 25t-25 61v86q0 36 25 60t59 24h86zM896 212.667v598h-598v-598h598zM896 896.667q34 0 60-26t26-60v-598q0-34-26-59t-60-25h-598q-34 0-59 25t-25 59v598q0 34 25 60t59 26h598zM128 724.667v-682h682v-86h-682q-34 0-60 26t-26 60v682h86z" />
<glyph unicode="&#xe17b;" glyph-name="flash_on" d="M298 852.667h428l-172-340h172l-300-512v384h-128v468z" />
<glyph unicode="&#xe205;" glyph-name="cancel7" d="M726 272.667l-154 154 154 154-60 60-154-154-154 154-60-60 154-154-154-154 60-60 154 154 154-154zM512 852.667q176 0 301-125t125-301-125-301-301-125-301 125-125 301 125 301 301 125z" />
<glyph unicode="&#xe209;" glyph-name="close21" d="M810 664.667l-238-238 238-238-60-60-238 238-238-238-60 60 238 238-238 238 60 60 238-238 238 238z" />
<glyph unicode="&#xe20e;" glyph-name="menu11" d="M128 682.667h768v-86h-768v86zM128 384.667v84h768v-84h-768zM128 170.667v86h768v-86h-768z" />
<glyph unicode="&#xe211;" glyph-name="refresh4" d="M754 668.667l100 100v-300h-300l138 138q-76 76-180 76-106 0-181-75t-75-181 75-181 181-75q84 0 150 47t92 123h88q-28-112-120-184t-210-72q-140 0-240 100t-100 242 100 242 240 100q142 0 242-100z" />
<glyph unicode="&#xe22b;" glyph-name="sync2" d="M512 170.667v128l170-170-170-172v128q-140 0-241 101t-101 241q0 100 54 182l62-62q-30-54-30-120 0-106 75-181t181-75zM512 768.667q140 0 241-101t101-241q0-100-54-182l-62 62q30 54 30 120 0 106-75 181t-181 75v-128l-170 170 170 172v-128z" />
<glyph unicode="&#xe260;" glyph-name="star9" d="M512 202.667l-264-160 70 300-232 202 306 26 120 282 120-282 306-26-232-202 70-300z" />
<glyph unicode="&#xe27b;" glyph-name="bookmark11" d="M726 810.667q34 0 59-26t25-60v-682l-298 128-298-128v682q0 34 25 60t59 26h428z" />
<glyph unicode="&#xe287;" glyph-name="delete2" d="M810 768.667v-86h-596v86h148l44 42h212l44-42h148zM256 128.667v512h512v-512q0-34-26-60t-60-26h-340q-34 0-60 26t-26 60z" />
<glyph unicode="&#xe291;" glyph-name="favorite" d="M512 28.667l-62 56q-106 96-154 142t-107 114-81 123-22 113q0 98 67 166t167 68q116 0 192-90 76 90 192 90 100 0 167-68t67-166q0-78-52-162t-113-146-199-186z" />
<glyph unicode="&#xe299;" glyph-name="grade" d="M512 202.667l-264-160 70 300-232 202 306 26 120 282 120-282 306-26-232-202 70-300z" />
<glyph unicode="&#xe29e;" glyph-name="home11" d="M426 84.667h-212v342h-128l426 384 426-384h-128v-342h-212v256h-172v-256z" />
<glyph unicode="&#xe2aa;" glyph-name="list8" d="M298 640.667h598v-86h-598v86zM298 212.667v86h598v-86h-598zM298 384.667v84h598v-84h-598zM128 554.667v86h86v-86h-86zM128 212.667v86h86v-86h-86zM128 384.667v84h86v-84h-86z" />
<glyph unicode="&#xe2c9;" glyph-name="schedule6" d="M534 640.667v-224l192-114-32-54-224 136v256h64zM512 84.667q140 0 241 101t101 241-101 241-241 101-241-101-101-241 101-241 241-101zM512 852.667q176 0 301-125t125-301-125-301-301-125-301 125-125 301 125 301 301 125z" />
<glyph unicode="&#xe2ca;" glyph-name="search9" d="M406 340.667q80 0 136 56t56 136-56 136-136 56-136-56-56-136 56-136 136-56zM662 340.667l212-212-64-64-212 212v34l-12 12q-76-66-180-66-116 0-197 80t-81 196 81 197 197 81 196-81 80-197q0-104-66-180l12-12h34z" />
<glyph unicode="&#xe2e2;" glyph-name="stars2" d="M692 170.667l-48 206 160 138-210 18-82 192-82-194-210-16 160-138-48-206 180 108zM512 852.667q176 0 301-125t125-301-125-301-301-125-301 125-125 301 125 301 301 125z" />
<glyph unicode="&#xe2fd;" glyph-name="view_carousel" d="M768 682.667h170v-470h-170v470zM86 212.667v470h170v-470h-170zM298 128.667v640h428v-640h-428z" />
<glyph unicode="&#xe311;" glyph-name="zoom_in" d="M512 512.667h-86v-86h-42v86h-86v42h86v86h42v-86h86v-42zM406 340.667q80 0 136 56t56 136-56 136-136 56-136-56-56-136 56-136 136-56zM662 340.667l212-212-64-64-212 212v34l-12 12q-76-66-180-66-116 0-197 80t-81 196 81 197 197 81 196-81 80-197q0-104-66-180l12-12h34z" />
<glyph unicode="&#xe312;" glyph-name="zoom_out" d="M298 554.667h214v-42h-214v42zM406 340.667q80 0 136 56t56 136-56 136-136 56-136-56-56-136 56-136 136-56zM662 340.667l212-212-64-64-212 212v34l-12 12q-76-66-180-66-116 0-197 80t-81 196 81 197 197 81 196-81 80-197q0-104-66-180l12-12h34z" />
<glyph unicode="&#xe600;" glyph-name="Superhero" horiz-adv-x="1441" d="M592.788 256.26l125.041-121.954 111.148 113.721c-65.865-24.699-148.712-13.379-236.189 8.233zM412.173 445.108l75.128-77.186c51.972 42.71 126.585 39.108 148.197-27.272 49.399-12.35 98.798-19.554 148.197-21.097 204.285 8.748 188.848 92.109-28.816 104.458-132.76-6.175-245.966 1.544-342.706 21.097zM715.771 778.551c-36.535-0.515-74.613-5.146-113.206-14.923-120.41-45.282-122.983-129.672 11.321-152.828 86.448-12.35 180.615-11.835 282.501 2.058 98.798 16.981 185.761-18.010 203.771-80.788l144.080 148.712-80.788 69.467-2.058-98.283h-179.071v30.874c-57.632 57.632-156.43 96.74-266.549 95.711zM1008.048 779.066c5.66-6.689 9.262-14.408 11.321-23.156 2.573 7.719 5.66 15.952 10.806 23.156h-22.127zM312.346 782.668l-113.721-111.662 71.011-77.186c-14.408 65.865 15.952 147.682 98.283 185.246l-55.574 3.602zM278.384 887.641h887.638l213.033-213.033-667.916-681.809-649.391 699.819 216.635 195.023z" />
<glyph unicode="&#xe606;" glyph-name="snowflake1" d="M765.744 375.5l-65.25 37.668c2.084 11.332 3.5 22.916 3.5 34.832 0 11.958-1.416 23.584-3.584 34.916l65.25 37.708c30.666 17.75 41.084 56.876 23.458 87.376-17.708 30.624-56.75 41.124-87.376 23.5l-65.876-38.042c-17.624 15-37.708 26.834-59.876 34.708v75.834c0 35.334-28.624 64-64 64-35.332 0-64-28.666-64-64v-75.792c-22.166-7.876-42.25-19.71-59.874-34.708l-65.752 37.958c-30.624 17.666-69.792 7.208-87.498-23.416-17.626-30.584-7.124-69.708 23.498-87.376l65.126-37.626c-2.124-11.376-3.502-23.042-3.502-35.042 0-11.916 1.376-23.542 3.502-34.876l-65.168-37.624c-30.668-17.668-41.168-56.876-23.458-87.5 17.622-30.5 56.79-41 87.458-23.376l65.666 37.958c17.626-15 37.75-26.916 60-34.834v-75.746c0-35.376 28.668-64 64-64 35.376 0 64 28.624 64 64v75.834c22.25 7.916 42.376 19.75 59.916 34.79l65.834-37.998c30.624-17.624 69.752-7.124 87.376 23.376 17.714 30.622 7.256 69.748-23.37 87.498zM447.994 448c0 35.334 28.624 64 64 64 35.334 0 64-28.666 64-64 0-35.332-28.666-64-64-64-35.374 0-64 28.668-64 64z" />
<glyph unicode="&#xe60c;" glyph-name="lines" d="M224 640h576c17.666 0 32 14.334 32 32s-14.334 32-32 32h-576c-17.666 0-32-14.334-32-32s14.334-32 32-32zM800 576h-576c-17.666 0-32-14.334-32-32s14.334-32 32-32h576c17.666 0 32 14.334 32 32s-14.334 32-32 32zM800 448h-576c-17.666 0-32-14.334-32-32s14.334-32 32-32h576c17.666 0 32 14.334 32 32s-14.334 32-32 32zM800 320h-576c-17.666 0-32-14.334-32-32s14.334-32 32-32h576c17.666 0 32 14.334 32 32s-14.334 32-32 32z" />
<glyph unicode="&#xe62f;" glyph-name="store1" d="M960 64h-64v128c0 35.344-28.624 64-64 64s-64-28.656-64-64v-128h-512v128c0 35.344-28.624 64-64 64s-64-28.656-64-64v-128h-64c-35.376 0-64-28.656-64-64s28.624-64 64-64h896c35.376 0 64 28.656 64 64s-28.624 64-64 64zM960 960h-896c-35.376 0-64-28.656-64-64v-384c0-70.688 57.312-128 128-128s128 57.312 128 128c0-70.688 57.312-128 128-128s128 57.312 128 128c0-70.688 57.312-128 128-128s128 57.312 128 128c0-70.688 57.312-128 128-128s128 57.312 128 128v384c0 35.344-28.624 64-64 64z" />
<glyph unicode="&#xe631;" glyph-name="in" d="M960 512c-35.376 0-64-28.656-64-64v-384h-768v384c0 35.344-28.624 64-64 64s-64-28.656-64-64v-448c0-35.344 28.624-64 64-64h896c35.376 0 64 28.656 64 64v448c0 35.344-28.624 64-64 64zM576 512v391.818c0 31.026-28.624 56.182-64 56.182s-64-25.156-64-56.182v-391.818h-192l256-256 256 256h-192z" />
<glyph unicode="&#xe632;" glyph-name="in-alt" d="M960 960h-448c-35.376 0-64-28.656-64-64s28.624-64 64-64h384v-768h-384c-35.376 0-64-28.656-64-64s28.624-64 64-64h448c35.376 0 64 28.656 64 64v896c0 35.344-28.624 64-64 64zM448 192l256 256-256 256v-192h-390.818c-31.606 0-57.182-28.656-57.182-64s25.576-64 57.182-64h390.818v-192z" />
<glyph unicode="&#xe633;" glyph-name="home1" d="M1005.376 563.032l-378.218 378.186c-14.434 14.496-33.802 20.088-52.736 18.526h-124.844c-18.932 1.562-38.302-4.030-52.736-18.526l-76.792-76.794v95.32h-191.952v-287.272l-109.474-109.44c-14.496-14.496-20.056-33.834-18.494-52.736v-126.404c0-35.336 28.618-63.986 63.982-63.986h63.984v-319.918c0-35.336 28.618-63.984 63.984-63.984h639.84c35.366 0 63.984 28.648 63.984 63.984v319.916h63.982c35.368 0 63.984 28.65 63.984 63.986v126.404c1.564 18.904-3.996 38.242-18.494 52.738zM895.904 447.874h-127.968v-383.902h-127.966v255.932h-255.936v-255.934h-127.968v383.904h-127.968v35.492l348.412 348.412h70.982l348.412-348.412v-35.492z" />
<glyph unicode="&#xe639;" glyph-name="search1" d="M995.828-35.826c-37.566-37.564-98.45-37.564-136.016 0l-169.726 169.726c-69.776-44.764-152.26-71.434-241.318-71.434-247.83 0-448.768 200.908-448.768 448.768s200.938 448.766 448.768 448.766c247.862 0 448.768-200.904 448.768-448.766 0-89.028-26.704-171.542-71.436-241.352l169.728-169.726c37.562-37.564 37.562-98.418 0-135.982zM448.768 831.782c-177.022 0-320.548-143.494-320.548-320.546s143.526-320.548 320.548-320.548c177.052 0 320.548 143.496 320.548 320.548s-143.496 320.546-320.548 320.546z" />
<glyph unicode="&#xe63a;" glyph-name="zoomin" d="M995.828-35.828c-37.566-37.562-98.452-37.562-136.016 0l-169.726 169.728c-69.778-44.732-152.262-71.436-241.32-71.436-247.83 0-448.766 200.908-448.766 448.768s200.936 448.768 448.766 448.768c247.862 0 448.768-200.906 448.768-448.768 0-89.058-26.704-171.542-71.436-241.35l169.728-169.696c37.564-37.564 37.564-98.448 0.002-136.014zM448.766 831.78c-177.022 0-320.548-143.526-320.548-320.548 0-177.052 143.526-320.548 320.548-320.548 177.054 0 320.548 143.496 320.548 320.548 0 177.022-143.494 320.548-320.548 320.548zM512.876 318.904h-128.218v128.218h-128.218v128.218h128.218v128.22h128.218v-128.22h128.22v-128.218h-128.22v-128.218z" />
<glyph unicode="&#xe63b;" glyph-name="zoomout" d="M995.828 100.188l-169.728 169.696c44.732 69.806 71.436 152.292 71.436 241.35 0 247.86-200.908 448.766-448.77 448.766-247.83 0-448.766-200.906-448.766-448.768s200.936-448.768 448.766-448.768c89.058 0 171.542 26.704 241.32 71.436l169.726-169.728c37.564-37.562 98.45-37.562 136.016 0 37.562 37.566 37.562 98.45 0 136.016zM448.766 190.684c-177.022 0-320.548 143.496-320.548 320.548 0 177.022 143.526 320.548 320.548 320.548 177.054 0 320.548-143.526 320.548-320.548 0-177.052-143.494-320.548-320.548-320.548zM256.438 447.124h384.658v128.218h-384.658v-128.218z" />
<glyph unicode="&#xe63c;" glyph-name="add" d="M512-64c-282.75 0-512 229.218-512 512s229.25 512 512 512c282.782 0 512-229.218 512-512s-229.218-512-512-512zM512 832c-212.062 0-384-171.938-384-384s171.938-384 384-384c212.094 0 384 171.938 384 384s-171.906 384-384 384zM576 192h-128v192h-192v128h192v192h128v-192h192v-128h-192v-192z" />
<glyph unicode="&#xe63d;" glyph-name="subtract1" d="M512 960c-282.75 0-512-229.25-512-512 0-282.782 229.25-512 512-512 282.782 0 512 229.218 512 512 0 282.75-229.218 512-512 512zM512 64c-212.062 0-384 171.938-384 384s171.938 384 384 384c212.094 0 384-171.938 384-384s-171.906-384-384-384zM256 384h512v128h-512v-128z" />
<glyph unicode="&#xe640;" glyph-name="close" d="M149.932 85.974c-199.94 199.94-199.94 524.132 0 724.074 200.004 199.94 524.134 199.94 724.136 0 199.94-199.942 199.94-524.134 0-724.074-200.002-199.97-524.132-199.97-724.136 0zM783.566 719.546c-150.002 149.97-393.13 149.97-543.070 0-150.002-149.97-150.002-393.1 0-543.070 149.94-149.972 393.068-149.972 543.070 0 149.942 149.972 149.942 393.1 0 543.070zM376.248 221.726l-90.502 90.532 135.752 135.754-135.752 135.752 90.502 90.534 135.752-135.784 135.754 135.784 90.5-90.534-135.752-135.752 135.752-135.754-90.5-90.532-135.754 135.784-135.752-135.784z" />
<glyph unicode="&#xe643;" glyph-name="book1" d="M512 768l-384 192h-64c-35.376 0-64-28.656-64-64v-704c0-35.376 28.624-64 64-64l448-192 448 192c35.376 0 64 28.624 64 64v704c0 35.344-28.624 64-64 64h-64M448 96l-320 160v512l320-106.656v-565.344zM896 256l-320-160v565.344l320 106.656v-512z" />
<glyph unicode="&#xe650;" glyph-name="envelope" d="M959.998 832h-895.998c-35.342 0-64-28.624-64-64v-640c0-35.376 28.658-64 64-64h895.998c35.344 0 64.002 28.624 64.002 64v640c0 35.376-28.658 64-64.002 64zM832 704l-320-256-320 256h640zM896 192h-768v448l384-320 384 320v-448z" />
<glyph unicode="&#xe655;" glyph-name="calendar8" d="M832 960h-128v-128h128v128zM960 960h-64v-192h-256v192h-256v-192h-256v192h-64c-35.376 0-64-28.656-64-64v-896c0-35.376 28.624-64 64-64h896c35.376 0 64 28.624 64 64v896c0 35.344-28.624 64-64 64zM896 64h-768v576h768v-576zM320 960h-128v-128h128v128zM576 512h-128v-128h128v128zM768 512h-128v-128h128v128zM384 320h-128v-128h128v128zM384 512h-128v-128h128v128zM576 320h-128v-128h128v128zM768 320h-128v-128h128v128z" />
<glyph unicode="&#xe656;" glyph-name="hyperlink" d="M1006.932 695.464l-247.466 247.468c-22.76 22.758-59.71 22.758-82.468 0l-247.464-247.468c-22.822-22.758-22.822-59.708 0-82.53l41.202-41.202 247.466 247.466 164.998-164.998-247.466-247.466 41.264-41.264c22.758-22.76 59.708-22.76 82.468 0l247.464 247.464c22.76 22.822 22.76 59.774 0.002 82.53zM553.266 324.268l-247.466-247.468-164.998 164.998 247.464 247.466-41.264 41.264c-22.758 22.76-59.708 22.76-82.466 0l-247.468-247.464c-22.758-22.82-22.758-59.772 0-82.53l247.466-247.466c22.758-22.758 59.708-22.758 82.466 0l247.466 247.466c22.82 22.758 22.82 59.708 0 82.53l-41.2 41.204zM347.002 283.064c22.822-22.82 59.708-22.82 82.532 0l247.464 247.464c22.758 22.76 22.758 59.648 0 82.406-22.82 22.82-59.708 22.82-82.53 0l-247.466-247.464c-22.758-22.76-22.758-59.648 0-82.406z" />
<glyph unicode="&#xe657;" glyph-name="trash1" d="M576 512h128v-320h-128zM960 768h-256v128c0 35.376-28.624 64-64 64h-256c-35.376 0-64-28.624-64-64v-128h-256c-35.376 0-64-28.624-64-64v-64h64v-640c0-35.376 28.624-64 64-64h768c35.376 0 64 28.624 64 64v640h64v64c0 35.376-28.624 64-64 64zM448 832h128v-64h-128v64zM832 64h-640v576h640v-576zM320 512h128v-320h-128z" />
<glyph unicode="&#xe658;" glyph-name="trash-alt" d="M960 768h-256v128c0 35.376-28.624 64-64 64h-256c-35.376 0-64-28.624-64-64v-128h-256c-35.376 0-64-28.624-64-64v-64h128v-640c0-35.376 28.624-64 64-64h640c35.376 0 64 28.624 64 64v640h128v64c0 35.376-28.624 64-64 64zM448 832h128v-64h-128v64zM768 64h-512v576h512v-576z" />
<glyph unicode="&#xe659;" glyph-name="grid1" d="M384 384h-320c-35.376 0-64-28.624-64-64v-320c0-35.376 28.624-64 64-64h320c35.376 0 64 28.624 64 64v320c0 35.376-28.624 64-64 64zM320 64h-192v192h192v-192zM384 960h-320c-35.376 0-64-28.624-64-64v-320c0-35.376 28.624-64 64-64h320c35.376 0 64 28.624 64 64v320c0 35.376-28.624 64-64 64zM320 640h-192v192h192v-192zM960 384h-320c-35.376 0-64-28.624-64-64v-320c0-35.376 28.624-64 64-64h320c35.376 0 64 28.624 64 64v320c0 35.376-28.624 64-64 64zM896 64h-192v192h192v-192zM960 960h-320c-35.376 0-64-28.624-64-64v-320c0-35.376 28.624-64 64-64h320c35.376 0 64 28.624 64 64v320c0 35.376-28.624 64-64 64zM896 640h-192v192h192v-192z" />
<glyph unicode="&#xe65a;" glyph-name="grid-alt" d="M960-64h-896c-35.376 0-64 28.624-64 64v896c0 35.376 28.624 64 64 64h896c35.376 0 64-28.624 64-64v-896c0-35.376-28.624-64-64-64zM896 832h-768v-768h768v768zM448 512h-192v192h192v-192zM448 192h-192v192h192v-192zM768 512h-192v192h192v-192zM768 192h-192v192h192v-192z" />
<glyph unicode="&#xe65b;" glyph-name="menu1" d="M256 320h512v-128h-512zM256 512h512v-128h-512zM960 960h-896c-35.376 0-64-28.624-64-64v-896c0-35.376 28.624-64 64-64h896c35.376 0 64 28.624 64 64v896c0 35.376-28.624 64-64 64zM896 64h-768v768h768v-768zM256 704h512v-128h-512z" />
<glyph unicode="&#xe65c;" glyph-name="list1" d="M256 704h128v-128h-128zM256 512h128v-128h-128zM256 320h128v-128h-128zM512 320h256v-128h-256zM960 960h-896c-35.376 0-64-28.624-64-64v-896c0-35.376 28.624-64 64-64h896c35.376 0 64 28.624 64 64v896c0 35.376-28.624 64-64 64zM896 64h-768v768h768v-768zM512 512h256v-128h-256zM512 704h256v-128h-256z" />
<glyph unicode="&#xe65f;" glyph-name="windows1" d="M960 192h-64v640h-640v64c0 35.376 28.624 64 64 64h640c35.376 0 64-28.624 64-64v-640c0-35.376-28.624-64-64-64zM832 704v-704c0-35.376-28.624-64-64-64h-704c-35.376 0-64 28.624-64 64v704c0 35.376 28.624 64 64 64h704c35.376 0 64-28.624 64-64zM704 640h-576v-192h576v192zM704 320h-576v-256h576v256zM256 512h-64v64h64v-64zM384 512h-64v64h64v-64zM640 512h-192v64h192v-64z" />
<glyph unicode="&#xe664;" glyph-name="settings" d="M1024 512v-128h-133.812c-9.562-56.688-32.094-108.75-63.656-154.062l134.218-116.688-92.376-114.124-147.968 128.688c-43.094-28-91.624-48.438-144.406-57.376v-134.438h-128v133.812c-52.938 8.938-101.532 29.562-144.656 57.812l-147.718-128.5-92.376 114.124 134.438 116.938c-31.312 45.252-53.688 97.19-63.25 153.814h-134.438v128h133.812c9.562 56.688 32.094 108.75 63.656 154.062l-134.218 116.688 92.376 114.124 147.968-128.688c43.094 28 91.624 48.438 144.406 57.376v134.438h128v-134.438c52.782-8.938 101.312-29.376 144.406-57.376l147.968 128.688 92.376-114.124-134.218-116.688c31.562-45.312 54.094-97.376 63.656-154.062h133.812zM512 640c-106.032 0-192-85.938-192-192s85.968-192 192-192 192 85.938 192 192-85.968 192-192 192z" />
<glyph unicode="&#xe665;" glyph-name="portfolio" d="M960 768h-256v128c0 35.376-28.656 64-64 64h-256c-35.344 0-64-28.624-64-64v-128h-256c-35.344 0-64-28.624-64-64v-704c0-35.376 28.656-64 64-64h896c35.344 0 64 28.624 64 64v704c0 35.376-28.656 64-64 64zM448 832h128v-64h-128v64zM896 64h-768v256h256v-64h256v64h256v-256zM896 384h-256v64h-256v-64h-256v256h768v-256z" />
<glyph unicode="&#xe668;" glyph-name="heart1" d="M1024 576c0-283.938-512-640-512-640s-512 356.062-512 640c-0.562 28.312 2.376 60.062 0 96-10.562 158.688 128.938 288 288 288 91.062 0 171.25-62.062 224-128 52.75 65.938 132.938 128 224 128 159.062 0 298.562-129.312 288-288-2.376-35.938 0.562-67.688 0-96zM896 672c7.938 88-71.624 160-160 160-165.812 0-160-128-160-128 0-35.376-28.624-64-64-64s-64 28.624-64 64c0 0 5.812 128-160 128-88.376 0-167.938-72-160-160 3.25-36.124-2.062-69.25 0.876-96-0.062 0-0.75 0-0.876 0 4 0.938-22-188.562 383.25-478.438 0.312 0.188 0.5 0.376 0.75 0.562 0.25-0.188 0.438-0.376 0.75-0.562 405.25 289.876 379.25 479.376 383.25 478.438-0.124 0-0.812 0-0.876 0 2.938 26.75-2.374 59.876 0.876 96z" />
<glyph unicode="&#xe66b;" glyph-name="screen" d="M960 960h-896c-35.344 0-64-28.624-64-64v-704c0-35.376 28.656-64 64-64h384v-64h-192c-35.344 0-64-28.624-64-64v-64h640v64c0 35.376-28.656 64-64 64h-192v64h384c35.344 0 64 28.624 64 64v704c0 35.376-28.656 64-64 64zM896 256h-768v576h768v-576z" />
<glyph unicode="&#xe66d;" glyph-name="ipad" d="M960 960h-896c-35.344 0-64-28.624-64-64v-896c0-35.376 28.656-64 64-64h896c35.344 0 64 28.624 64 64v896c0 35.376-28.656 64-64 64zM896 192h-768v640h768v-640z" />
<glyph unicode="&#xe66e;" glyph-name="forkandspoon" d="M448 960c-35.344 0-64-28.624-64-64v-320h-64v320c0 35.376-28.656 64-64 64s-64-28.624-64-64v-320h-64v320c0 35.376-28.656 64-64 64s-64-28.624-64-64v-384c0-35.376 28.656-64 64-64h128v-448c0-35.376 28.656-64 64-64s64 28.624 64 64v448h128c35.344 0 64 28.624 64 64v384c0 35.376-28.656 64-64 64zM832 960c-106.032 0-192-85.938-192-192 0-83.5 53.594-153.812 128-180.25v-587.75c0-35.376 28.656-64 64-64s64 28.624 64 64v587.75c74.406 26.438 128 96.75 128 180.25 0 106.062-85.968 192-192 192z" />
<glyph unicode="&#xe66f;" glyph-name="forkandknife" d="M448 960c-35.344 0-64-28.624-64-64v-320h-64v320c0 35.376-28.656 64-64 64s-64-28.624-64-64v-320h-64v320c0 35.376-28.656 64-64 64s-64-28.624-64-64v-384c0-35.376 28.656-64 64-64h128v-448c0-35.376 28.656-64 64-64s64 28.624 64 64v448h128c35.344 0 64 28.624 64 64v384c0 35.376-28.656 64-64 64zM896 960c0 0-128-41.312-128-192v-128c0-83.5 53.594-153.812 128-180.25v-459.75c0-35.376 28.656-64 64-64s64 28.624 64 64v960h-128z" />
<glyph unicode="&#xe67e;" glyph-name="globe" d="M512-64c-282.75 0-512 229.25-512 512s229.25 512 512 512 512-229.25 512-512-229.25-512-512-512zM512 832c-212.062 0-384-171.938-384-384s171.938-384 384-384 384 171.938 384 384-171.938 384-384 384zM700.188 217.188l-11.25-6.562-32.5-19.812-19.188-13.938c-14.25-6.812-29.124-12.188-44.5-16.75v18.874l-5.438 43.438c0 0-2.688 25.062-6.75 31.624-4.062 6.624-13.562 15.876-23.062 19.812s-16.25 3.938-21.688 10.5c-5.438 6.624-9.5 18.5-16.25 29-6.812 10.562-14.938 21.124-14.938 26.376s0 59.312 0 59.312l6.812 50.062 14.876 10.562 17.624 19.75 12.188 3.938 42-7.876h29.812l12.25-25.062 28.438-22.376 17.624-27.688 23-7.876h25.752l17.624-21.124 10.876-22.376 4.062-15.812v-26.376l-2.812-15.562c-17.188-28.184-39-52.996-64.562-74.058zM595.438 671.876l-29.812-15.812-10.812-30.312-17.624-15.812h-58.312l-27.062-10.562-1.376-21.062-10.812-17.124-2.75-18.5 5.438-15.812 6.75-15.812c0 0 16.312-18.438 0-31.624 0 0-20.312 0-24.376 6.624-4.062 6.562-33.876 25-39.312 30.312-5.376 5.25-23 10.5-23 10.5l-21.688 7.938-20.312 1.312 1.312 27.688-1.312 23.688-8.188 17.124-23 17.188-1.376 18.438 2.812 10.25c54.876 53.062 130.5 85.938 214 85.938 47.124 0 91.188-11.312 131-29.938l-0.876-6.938-39.312-27.692z" />
<glyph unicode="&#xe68a;" glyph-name="x" d="M960 179.264l-268.992 268.736 268.992 268.736-179.264 179.264-268.736-268.864-268.864 268.864-179.136-179.264 268.736-268.736-268.736-268.736 179.136-179.264 268.864 268.864 268.736-268.864z" />
<glyph unicode="&#xe68b;" glyph-name="x-altx-alt" d="M512 960c-282.752 0-512-229.248-512-512s229.248-512 512-512 512 229.248 512 512-229.248 512-512 512zM765.248 285.248l-90.496-90.496-162.752 162.752-162.752-162.752-90.496 90.496 162.752 162.752-162.752 162.752 90.496 90.496 162.752-162.752 162.752 162.752 90.496-90.496-162.752-162.752 162.752-162.752z" />
<glyph unicode="&#xe692;" glyph-name="cog1" d="M1024 384.992v128l-152.992 63.744c-4.256 12-8.736 23.616-14.24 35.008l61.76 153.76-90.528 90.496-152.384-62.752c-11.616 5.632-23.488 10.368-35.744 14.752l-64.864 152h-128l-63.264-151.488c-12.736-4.512-24.992-9.248-37.12-15.008l-152.128 61.12-90.496-90.496 62.016-150.752c-6.016-12.384-10.88-24.992-15.52-38.016l-150.496-64.352v-128l150.624-62.752c4.64-12.992 9.632-25.632 15.616-38.016l-60.864-151.744 90.496-90.496 151.136 62.24c12.128-5.76 24.512-10.368 37.248-14.752l64.736-151.488h128l63.36 152.256c12.128 4.512 24.128 9.248 35.616 14.752l153.504-61.504 90.496 90.496-63.008 152.736c5.376 11.488 9.76 23.136 14.016 35.008l153.024 65.248zM511.008 256c-105.984 0-192 86.016-192 192s86.016 192 192 192 192-86.016 192-192-86.016-192-192-192z" />
<glyph unicode="&#xe693;" glyph-name="calendar211" d="M768 832v128h-128v-128h-256v128h-128v-128h-256v-128h1024v128zM128 320h768v-128h-768zM128 576h768v-128h-768zM128-64h640l128 128h-768z" />
<glyph unicode="&#xe694;" glyph-name="calendar-alt-stroke" d="M1024-64h-1024v896h128v-768h768v768h128zM192 576h128v-128h-128zM448 576h128v-128h-128zM704 576h128v-128h-128zM192 320h128v-128h-128zM448 320h128v-128h-128zM704 192v128h128zM256 768v128c0 35.36 28.64 64 64 64s64-28.64 64-64v-128c0-35.36-28.64-64-64-64s-64 28.64-64 64zM640 768v128c0 35.36 28.64 64 64 64s64-28.64 64-64v-128c0-35.36-28.64-64-64-64s-64 28.64-64 64z" />
<glyph unicode="&#xe695;" glyph-name="calendar-alt-fill" d="M832 832v-65.504c0-70.752-57.248-128-128-128s-128 57.248-128 128v65.504h-128v-65.504c0-70.752-57.248-128-128-128s-128 57.248-128 128v65.504h-192v-896h1024v896h-192zM320 64h-128v128h128v-128zM320 320h-128v128h128v-128zM576 64h-128v128h128v-128zM576 320h-128v128h128v-128zM704 64v128h128l-128-128zM832 320h-128v128h128v-128zM256 768v128c0 35.36 28.64 64 64 64s64-28.64 64-64v-128c0-35.36-28.64-64-64-64s-64 28.64-64 64zM640 768v128c0 35.36 28.64 64 64 64s64-28.64 64-64v-128c0-35.36-28.64-64-64-64s-64 28.64-64 64z" />
<glyph unicode="&#xe697;" glyph-name="mail1" d="M511.872 465.376l512.128 241.248v125.376h-1024v-124.992zM512.128 323.872l-512.128 241.888v-501.76h1024v500.992z" />
<glyph unicode="&#xe698;" glyph-name="heart-stroke" d="M739.616 768c78.624 0 143.744-58.24 154.752-134.016l-382.24-438.976-382.496 438.976c11.008 75.776 76.128 134.016 154.752 134.016 64.512 0 123.36-69.248 123.36-69.248l104.256-110.752 104.256 110.752c0 0 58.88 69.248 123.36 69.248M739.616 896c-95.488 0-176-50.496-227.616-123.008-51.616 72.512-132.128 123.008-227.616 123.008-156.896 0-284.384-127.744-284.384-284.512v-23.488l512.256-588 511.744 588v23.488c0 156.768-127.488 284.512-284.384 284.512v0z" />
<glyph unicode="&#xe699;" glyph-name="heart-fill" d="M512 772.992c-51.616 72.512-132.128 123.008-227.616 123.008-156.896 0-284.384-127.744-284.384-284.512v-23.488l512.256-588 511.744 588v23.488c0 156.768-127.488 284.512-284.384 284.512-95.488 0-176-50.496-227.616-123.008z" />
<glyph unicode="&#xe69f;" glyph-name="plus1" d="M1024 576h-384v384h-256v-384h-384v-256h384v-384h256v384h384z" />
<glyph unicode="&#xe6a0;" glyph-name="plus-alt" d="M512 960c-282.752 0-512-229.248-512-512s229.248-512 512-512 512 229.248 512 512-229.248 512-512 512zM768 384h-192v-192h-128v192h-192v128h192v192h128v-192h192v-128z" />
<glyph unicode="&#xe6a1;" glyph-name="minus1" d="M0 576h1024v-256h-1024z" />
<glyph unicode="&#xe6a2;" glyph-name="minus-alt" d="M512 960c-282.752 0-512-229.248-512-512s229.248-512 512-512 512 229.248 512 512-229.248 512-512 512zM768 384h-512v128h512v-128z" />
<glyph unicode="&#xe6a9;" glyph-name="equalizer1" d="M576 896c0 35.2-28.8 64-64 64s-64-28.8-64-64v-576h-64v-128h64v-192c0-35.2 28.8-64 64-64s64 28.8 64 64v192h64v128h-64v576zM192 896c0 35.2-28.8 64-64 64s-64-28.8-64-64v-320h-64v-128h64v-448c0-35.2 28.8-64 64-64s64 28.8 64 64v448h64v128h-64v320zM1024 704h-64v192c0 35.2-28.8 64-64 64s-64-28.8-64-64v-192h-64v-128h64v-576c0-35.2 28.8-64 64-64s64 28.8 64 64v576h64v128z" />
<glyph unicode="&#xe6ac;" glyph-name="magnifying-glass" d="M644.256 960c-209.248 0-379.52-170.24-379.52-379.616 0-50.112 10.24-97.632 27.872-141.376l-292.608-292.64 210.24-210.368 292.736 292.864c43.744-17.76 91.264-28 141.248-28 209.376 0 379.744 170.24 379.744 379.456 0.032 209.44-170.336 379.68-379.712 379.68zM644.256 328.736c-138.624 0-251.616 112.992-251.616 251.584 0 138.752 112.992 251.744 251.616 251.744 138.88 0 251.872-112.992 251.872-251.744 0-138.56-112.992-251.584-251.872-251.584z" />
<glyph unicode="&#xe6ad;" glyph-name="trash-stroke" d="M1024 832h-256c0 70.752-57.248 128-128 128h-256c-70.752 0-128-57.248-128-128h-256v-128h128v-576c0-105.984 86.016-192 192-192h384c105.984 0 192 86.016 192 192v576h128v128zM768 128c0-35.264-28.736-64-64-64h-384c-35.264 0-64 28.736-64 64v576h512v-576zM320 256c0 35.346 28.654 64 64 64s64-28.654 64-64c0-35.346-28.654-64-64-64s-64 28.654-64 64zM320 512c0 35.346 28.654 64 64 64s64-28.654 64-64c0-35.346-28.654-64-64-64s-64 28.654-64 64zM576 256c0 35.346 28.654 64 64 64s64-28.654 64-64c0-35.346-28.654-64-64-64s-64 28.654-64 64zM576 512c0 35.346 28.654 64 64 64s64-28.654 64-64c0-35.346-28.654-64-64-64s-64 28.654-64 64z" />
<glyph unicode="&#xe6ae;" glyph-name="trash-fill" d="M896 832h-128c0 70.752-57.248 128-128 128h-256c-70.752 0-128-57.248-128-128h-256v-128h128v-576c0-105.984 86.016-192 192-192h384c105.984 0 192 86.016 192 192v576h128v128h-128zM384 192c-35.36 0-64 28.64-64 64s28.64 64 64 64 64-28.64 64-64-28.64-64-64-64zM384 448c-35.36 0-64 28.64-64 64s28.64 64 64 64 64-28.64 64-64-28.64-64-64-64zM640 192c-35.36 0-64 28.64-64 64s28.64 64 64 64 64-28.64 64-64-28.64-64-64-64zM640 448c-35.36 0-64 28.64-64 64s28.64 64 64 64 64-28.64 64-64-28.64-64-64-64z" />
<glyph unicode="&#xe6b1;" glyph-name="key-stroke" d="M704 960c-176.736 0-320-143.264-320-320 0-20 2.368-39.264 5.888-58.112l-389.888-389.888v-256h384v128h128v128h128v128l5.888 5.888c18.848-3.52 38.112-5.888 58.112-5.888 176.736 0 320 143.264 320 320s-143.264 320-320 320zM704 448c-10.016 0-20.992 1.248-34.752 3.744l-66.24 12.256-91.008-91.008v-52.992h-128v-128h-128v-128h-128v75.008l400 400-12.256 66.24c-2.56 13.76-3.744 24.768-3.744 34.752 0 105.888 86.112 192 192 192s192-86.112 192-192-86.112-192-192-192zM640 640c0 35.346 28.654 64 64 64s64-28.654 64-64c0-35.346-28.654-64-64-64s-64 28.654-64 64z" />
<glyph unicode="&#xe6b2;" glyph-name="key-fill" d="M704 960c-176.736 0-320-143.264-320-320 0-20 2.368-39.264 5.888-58.112l-389.888-389.888v-256h384v128h128v128h128v128l5.888 5.888c18.848-3.52 38.112-5.888 58.112-5.888 176.736 0 320 143.264 320 320s-143.264 320-320 320zM704.256 576c-35.36 0-64 28.64-64 64s28.64 64 64 64 64-28.64 64-64-28.64-64-64-64z" />
<glyph unicode="&#xe6b5;" glyph-name="spin-alt" d="M150.112 85.76c-96.864 96.736-150.112 225.248-150.112 362.24 0 282.24 229.632 512 512 512l64-64-64-64c-211.744 0-384-172.256-384-384 0-102.752 40-199.264 112.64-271.744l-78.624-10.24-11.904-80.256zM512-64l-64 63.744 64 64.256c211.744 0 384 172.256 384 384 0 102.496-40 199.008-112.736 271.616l78.752 10.368 11.744 80.128c96.864-96.736 150.24-225.376 150.24-362.112 0-282.24-229.76-512-512-512v0z" />
<glyph unicode="&#xe6b6;" glyph-name="spin" horiz-adv-x="896" d="M764.256 765.248l-90.24-90.624c60.48-60.512 93.984-140.992 93.984-226.624 0-176.512-143.488-320-320-320v64l-128-128 128-128v64c247.008 0 448 200.992 448 448 0 119.872-46.752 232.512-131.744 317.248zM576 832l-128 128v-64c-247.008 0-448-200.992-448-448 0-119.872 46.752-232.512 131.744-317.248l90.24 90.624c-60.48 60.512-93.984 140.992-93.984 226.624 0 176.512 143.488 320 320 320v-64l128 128z" />
<glyph unicode="&#xe6b9;" glyph-name="reload" d="M768 384c0-141.12-114.752-256-256-256s-256 114.88-256 256 114.752 256 256 256l75.488-0.864-37.248-37.248 90.496-90.496 192.384 192.608-192.384 192-90.496-90.496 37.76-37.504h-76c-212 0-384-171.872-384-384s172-384 384-384 384 171.872 384 384h-128z" />
<glyph unicode="&#xe6ba;" glyph-name="reload-alt" d="M768 384c0-141.248-114.752-256-256-256s-256 114.752-256 256 114.752 256 256 256h128l0.736-128.64 192.384 192.64-192.384 192v-128h-128.736c-212 0-384-172-384-384s172-384 384-384 384 172 384 384h-128z" />
<glyph unicode="&#xe6bb;" glyph-name="loop1" d="M640 448v-128h151.616l-171.872-171.872c-108.448-108.672-297.888-108.672-406.432 0l-90.56-90.368c78.432-78.528 182.88-121.76 293.888-121.76 111.072 0 215.264 43.264 293.6 121.76l185.76 185.6v-179.36h128v384h-384zM384 576h-151.616l171.872 171.872c108.448 108.672 297.888 108.672 406.432 0l90.56 90.368c-78.432 78.496-182.88 121.76-293.92 121.76-111.072 0-215.264-43.264-293.6-121.76l-185.728-185.6v179.36h-128v-384h384v128z" />
<glyph unicode="&#xe6bc;" glyph-name="loop-alt1" d="M384 640h-128v0.512c0 35.264 28.736 63.488 64 63.488h384c35.264 0 64-28.736 64-64v-64h128v64c0 105.888-86.112 192-192 192h-384c-105.888 0-192-86.112-192-192h-128l192-192 192 192zM832 448l-192-192h128v-0.512c0-35.232-28.736-63.488-64-63.488h-384c-35.264 0-64 28.736-64 64v64h-128v-64c0-105.888 86.112-192 192-192h384c105.888 0 192 86.112 192 192h128l-192 192z" />
<glyph unicode="&#xe6bd;" glyph-name="loop-alt2" d="M384 640h-128v64c0 35.264 28.736 64 64 64h384c35.264 0 64-28.736 64-64v-64h128v64c0 105.888-86.112 192-192 192h-384c-105.888 0-192-86.112-192-192v-64h-128l192-256 192 256zM832 512l-192-256h128v-64c0-35.264-28.736-64-64-64h-384c-35.264 0-64 28.736-64 64v64h-128v-64c0-105.888 86.112-192 192-192h384c105.888 0 192 86.112 192 192v64h128l-192 256z" />
<glyph unicode="&#xe6be;" glyph-name="loop-alt3" d="M896 448v-64c0-35.264-28.736-64-64-64h-448.128l0.128 128-256-192 256-192-0.128 128h448.128c105.888 0 192 86.24 192 192v64h-128zM128 512c0 35.36 28.736 64 64 64h448v-128l255.744 192-255.744 192v-128h-448c-105.888 0-192-86.016-192-192v-64h128v64z" />
<glyph unicode="&#xe6bf;" glyph-name="loop-alt4" d="M896 384c0-35.264-28.736-64-64-64h-576.256v128l-255.744-192 255.744-192v128h576.256c105.888 0 192 86.24 192 192h-128zM192 576h576v-128l256 192-256 192v-128h-576c-105.888 0-192-86.016-192-192h128c0 35.264 28.736 64 64 64z" />
<glyph unicode="&#xe6d0;" glyph-name="arrow-down51" d="M384 960v-512l-192 192-192-192 512-512 512 512-192 192-192-192v512z" />
<glyph unicode="&#xe6d1;" glyph-name="arrow-down-alt1" d="M512 960c-282.752 0-512-229.248-512-512 0-282.784 229.248-512 512-512 282.784 0 512 229.216 512 512 0 282.752-229.216 512-512 512zM512 192l-256 256h192v256h128v-256h192l-256-256z" />
<glyph unicode="&#xe6d2;" glyph-name="arrow-down-alt2" d="M1024 448c0 282.752-229.248 512-512 512s-512-229.248-512-512 229.248-512 512-512 512 229.248 512 512zM384 256h64v512h128v-512h64l-128-128-128 128z" />
<glyph unicode="&#xe6d3;" glyph-name="cd" d="M512 960c-282.752 0-512-229.248-512-512s229.248-512 512-512 512 229.248 512 512-229.248 512-512 512zM512.992 322.112c-70.016 0-126.88 56.736-126.88 126.88 0 70.24 56.864 127.008 126.88 127.008 70.272 0 127.008-56.736 127.008-127.008 0-70.112-56.736-126.88-127.008-126.88z" />
<glyph unicode="&#xe6e0;" glyph-name="fullscreen-exit" d="M786.752 82.752l146.752-146.752 90.496 90.496-146.752 146.752 146.752 146.752h-384v-384zM0 576h384v384l-146.752-146.752-145.248 145.376-90.496-90.496 145.248-145.376zM0 26.496l90.496-90.496 146.752 146.752 146.752-146.752v384h-384l146.752-146.752zM640 576h384l-146.752 146.752 145.504 145.376-90.496 90.496-145.504-145.376-146.752 146.752z" />
<glyph unicode="&#xe6e1;" glyph-name="fullscreen-exit-alt" d="M896 320h-256v-256l82.752 82.752 210.752-210.752 90.496 90.496-210.752 210.752zM813.248 658.752l210.752 210.752-90.496 90.496-210.752-210.752-82.752 82.752v-256h256zM90.496 960l-90.496-90.496 210.752-210.752-82.752-82.752h256v256l-82.752-82.752zM210.752 237.248l-210.752-210.752 90.496-90.496 210.752 210.752 82.752-82.752v256h-256z" />
<glyph unicode="&#xe6ed;" glyph-name="at" d="M955.008 192c43.872 75.36 68.992 162.496 68.992 256 0 282.752-229.248 512-512 512s-512-229.248-512-512 229.248-512 512-512c141.376 0 269.376 57.248 361.984 150.016l-90.624 90.624c-69.472-69.632-165.472-112.64-271.36-112.64-211.744 0-384 172.256-384 384s172.256 384 384 384 384-172.256 384-384c0-45.504-8.736-88.992-23.36-129.504l-1.024 1.504h-103.616v382.624h-256c-141.376 0-256-114.624-256-256s114.624-256 256-256c58.752 0 112.256 20.64 155.488 53.888 23.264-31.008 58.752-52.512 100.512-52.512h187.008zM640 511.744v-65.12c0-70.624-57.504-128-128-128s-128 57.376-128 128 57.504 128 128 128h128v-62.88z" />
<glyph unicode="&#xe6ee;" glyph-name="ampersand1" horiz-adv-x="596" d="M294.784-64c-75.488 0-151.008 28.736-208.64 86.112-114.88 115.136-114.88 302.368 0 417.248l259.616 254.016c14.752 14.88 23.264 35.264 23.264 57.12 0 21.76-8.512 42.24-23.744 57.76-31.744 31.744-83.488 31.616-115.488-0.128-31.52-31.744-31.52-83.488 0.224-115.264l-90.624-90.624c-81.6 81.76-81.6 214.624-0.096 296.384 81.984 81.888 214.752 81.76 296.448 0.128 39.744-39.616 61.504-92.384 61.504-148.384s-21.76-108.64-61.504-148.128l-259.552-253.888c-64.64-64.512-64.64-170.496 0.64-235.616 64.992-65.12 171.008-64.992 236.256 0 64.928 65.12 64.928 171.136 0 236.128l-45.504 45.248 139.2 139.136 90.496-90.496-53.504-53.504c72.512-113.984 59.264-267.488-40.256-367.008-57.536-57.504-133.248-86.24-208.736-86.24v0z" />
<glyph unicode="&#xe6f9;" glyph-name="list21" horiz-adv-x="1170" d="M0 886.862c0 40.393 32.745 73.138 73.138 73.138s73.138-32.745 73.138-73.138c0-40.393-32.745-73.138-73.138-73.138s-73.138 32.745-73.138 73.138zM0 594.272c0 40.393 32.745 73.138 73.138 73.138s73.138-32.745 73.138-73.138c0-40.393-32.745-73.138-73.138-73.138s-73.138 32.745-73.138 73.138zM0 301.718c0 40.393 32.745 73.138 73.138 73.138s73.138-32.745 73.138-73.138c0-40.393-32.745-73.138-73.138-73.138s-73.138 32.745-73.138 73.138zM0 9.13c0 40.393 32.745 73.138 73.138 73.138s73.138-32.745 73.138-73.138c0-40.393-32.745-73.138-73.138-73.138s-73.138 32.745-73.138 73.138zM292.59 960h877.622v-146.276h-877.622zM292.59 667.41h877.622v-146.276h-877.622zM292.59 374.858h877.622v-146.278h-877.622zM292.59 82.268h877.622v-146.278h-877.622z" />
<glyph unicode="&#xe6fa;" glyph-name="list-nested" horiz-adv-x="1170" d="M0 886.858c0 40.396 32.747 73.143 73.143 73.143s73.143-32.747 73.143-73.143c0-40.396-32.747-73.143-73.143-73.143s-73.143 32.747-73.143 73.143zM292.572 960h877.714v-146.286h-877.714zM292.572 594.286c0 40.396 32.747 73.143 73.143 73.143s73.143-32.747 73.143-73.143c0-40.396-32.747-73.143-73.143-73.143s-73.143 32.747-73.143 73.143zM585.142 667.428h585.144v-146.286h-585.144zM292.572 9.142c0 40.396 32.747 73.143 73.143 73.143s73.143-32.747 73.143-73.143c0-40.396-32.747-73.143-73.143-73.143s-73.143 32.747-73.143 73.143zM585.142 82.286h585.144v-146.286h-585.144zM585.142 301.714c0 40.396 32.747 73.143 73.143 73.143s73.143-32.747 73.143-73.143c0-40.396-32.747-73.143-73.143-73.143s-73.143 32.747-73.143 73.143zM877.714 374.858h292.572v-146.286h-292.572z" />
<glyph unicode="&#xe70b;" glyph-name="chart1" horiz-adv-x="1022" d="M439.712 339.264l-320.256 320c-159.264-184.128-159.264-455.904 0-640l320.256 320zM640.032 826.944v-468.672l-331.264-331.392c74.496-55.616 164.992-90.88 264.992-90.88 248.736 0 450.24 201.248 450.24 449.888 0.032 225.856-167.424 408.864-383.968 441.056zM512 447.488v512.512c-139.488-8.64-265.504-62.016-367.264-145.184l367.264-367.328z" />
<glyph unicode="&#xe70c;" glyph-name="chart-alt" horiz-adv-x="960" d="M465.056 338.496l-338.496 338.496c-168.736-194.752-168.736-482.24 0-676.992l338.496 338.496zM512 384v576c-156.992-9.76-298.496-69.76-412.704-163.264l412.704-412.736zM576.064 831.488v-473.984l-332.256-332.256c74.496-54.752 164.256-89.248 263.52-89.248 250.176 0 452.672 202.496 452.672 452.256 0 226.496-167.264 409.984-383.936 443.232z" />
<glyph unicode="&#xe70d;" glyph-name="chart11" horiz-adv-x="1022" d="M439.712 339.264l-320.256 320c-159.264-184.128-159.264-455.904 0-640l320.256 320zM640.032 826.944v-468.672l-331.264-331.392c74.496-55.616 164.992-90.88 264.992-90.88 248.736 0 450.24 201.248 450.24 449.888 0.032 225.856-167.424 408.864-383.968 441.056zM512 447.488v512.512c-139.488-8.64-265.504-62.016-367.264-145.184l367.264-367.328z" />
<glyph unicode="&#xe70e;" glyph-name="chart-alt1" horiz-adv-x="960" d="M465.056 338.496l-338.496 338.496c-168.736-194.752-168.736-482.24 0-676.992l338.496 338.496zM512 384v576c-156.992-9.76-298.496-69.76-412.704-163.264l412.704-412.736zM576.064 831.488v-473.984l-332.256-332.256c74.496-54.752 164.256-89.248 263.52-89.248 250.176 0 452.672 202.496 452.672 452.256 0 226.496-167.264 409.984-383.936 443.232z" />
<glyph unicode="&#xe711;" glyph-name="home21" d="M512 960l-512-512h128v-512h768v512h128l-512 512zM768 64h-192v192h-128v-192h-192v459.008l256 180.992 256-180.992v-459.008z" />
<glyph unicode="&#xe720;" glyph-name="star1" d="M708.384 332l315.616 244h-384l-128 384-128-384h-384l316-243.008-124-396.992 320.512 245.76 319.744-245.76z" />
<glyph unicode="&#xe725;" glyph-name="download14" horiz-adv-x="768" d="M0 64h768v-128h-768zM512 384v576h-256v-576h-128l256-320 256 320z" />
<glyph unicode="&#xe727;" glyph-name="cloud-download1" d="M768 832c-12 0-23.616-1.888-35.264-3.616-44.608 78.976-127.104 131.616-220.736 131.616-95.616 0-178.176-53.376-222.112-131.136-11.264 1.504-22.464 3.136-33.888 3.136-141.184 0-256-114.88-256-256s114.816-256 256-256h192v-192h-128l192-192 192 192h-128v192h192c141.248 0 256 114.88 256 256s-114.752 256-256 256zM768 448h-512c-70.56 0-128 57.376-128 128 0 70.112 62.176 124.384 128.128 126.24 0.256-30.112 5.504-59.872 16-87.872l119.872 44.992c-5.312 14.144-8 29.28-8 44.64 0 70.624 57.44 128 128 128 41.44 0 78.816-20.512 102.496-52.384-61.856-46.752-102.496-120.256-102.496-203.616h128c0 70.624 57.504 128 128 128s128-57.376 128-128-57.504-128-128-128z" />
<glyph unicode="&#xe72d;" glyph-name="locked" d="M928-64h-832c-17.664 0-32 14.304-32 32v512c0 17.696 14.336 32 32 32h96v128c0 176.736 143.264 320 320 320s320-143.264 320-320v-128h96c17.696 0 32-14.304 32-32v-512c0-17.696-14.304-32-32-32zM704 656c0 97.216-85.984 176-192 176s-192-78.784-192-176v-144h384v144z" />
<glyph unicode="&#xe731;" glyph-name="envelope2" d="M928 832h-832c-53.024 0-96-42.976-96-96v-576c0-52.992 42.976-96 96-96h832c53.024 0 96 43.008 96 96v576c0 53.024-42.976 96-96 96zM87.712 128.32l-23.392 23.424 263.968 263.936 23.392-23.424-263.968-263.936zM936.288 128.32l-263.968 263.936 23.392 23.424 263.968-263.936-23.392-23.424zM544 341.6v-21.6h-64v21.6l-415.904 385.6 40.704 40.704 407.2-377.536 407.2 377.536 40.704-40.704-415.904-385.6z" />
<glyph unicode="&#xe732;" glyph-name="briefcase1" d="M928-64h-32v320h128v-224c0-52.992-42.976-96-96-96zM896 640h32c53.024 0 96-43.008 96-96v-256h-128v352zM192 256h256v-64c0-17.696 14.336-32 32-32h64c17.696 0 32 14.304 32 32v64h256v-320h-640v320zM576 288v96c0 17.696-14.304 32-32 32h-64c-17.664 0-32-14.304-32-32v-96h-256v352h64v80c0 132.544 114.624 240 256 240s256-107.456 256-240v-80h64v-352h-256zM640 704c0 70.688-57.312 128-128 128s-128-57.312-128-128v-64h256v64zM0 32v224h128v-320h-32c-53.024 0-96 43.008-96 96zM0 544c0 52.992 42.976 96 96 96h32v-352h-128v256z" />
<glyph unicode="&#xe733;" glyph-name="cart1" d="M1021.248 787.2l-93.248-371.2c0-4.448-0.896-8.64-2.496-12.448-3.264-7.68-9.376-13.824-17.024-17.056-3.84-1.632-8.064-2.496-12.48-2.496h-608l25.6-128h550.4c17.696 0 32-14.304 32-32s-14.304-32-32-32h-576c-17.696 0-32 14.304-32 32l-121.6 608h-102.4c-17.664 0-32 14.336-32 32s14.336 32 32 32h128c17.696 0 32-14.336 32-32l6.4-32h793.6c17.696 0 32-14.336 32-32 0-4.576-1.024-8.864-2.752-12.8zM275.2 448h108.8v320h-172.8l64-320zM576 768h-160v-320h160v320zM768 768h-160v-320h160v320zM800 768v-320h72.096l81.056 320h-153.152zM352 128c53.024 0 96-43.008 96-96s-42.976-96-96-96-96 43.008-96 96 42.976 96 96 96zM352 0c17.696 0 32 14.304 32 32s-14.304 32-32 32-32-14.304-32-32 14.304-32 32-32zM800 128c53.024 0 96-43.008 96-96s-42.976-96-96-96-96 43.008-96 96 42.976 96 96 96zM800 0c17.696 0 32 14.304 32 32s-14.304 32-32 32-32-14.304-32-32 14.304-32 32-32z" />
<glyph unicode="&#xe737;" glyph-name="cog21" d="M863.68 364.32c68.992-51.424 128.128-98.496 128.128-98.496l-84.192-147.648-152.16 67.168-140.992-82.464c-9.536-86.944-18.272-166.88-18.272-166.88h-168.384l-18.688 167.392-138.944 82.656-153.824-67.904-84.16 147.648c0 0 58.144 46.848 126.976 98.112v168.288l-126.976 97.92 84.16 147.68 150.144-66.816 149.056 80.864 12.256 168.16h168.384l12.192-167.456 147.008-82.496 152.256 67.776 84.192-147.68-128.128-98.272v-167.552zM512 576c-70.688 0-128-57.312-128-128s57.312-128 128-128 128 57.312 128 128-57.312 128-128 128z" />
<glyph unicode="&#xe73a;" glyph-name="pencil1" d="M965.536 718.656l-10.048-10.048-183.232 183.328 10.016 10.016c0 0 43.872 58.016 106.272 58.016 27.488 0 58.624-11.296 91.168-43.84 107.328-107.328-14.176-197.472-14.176-197.472zM895.328 648.416l-623.968-624.192-271.36-88.224 88.192 271.52v0.096h0.064l623.872 624.16 8.064-8.096M88.32 24.352l135.584 39.008-92.608 98.624-42.976-137.632z" />
<glyph unicode="&#xe73d;" glyph-name="star2" d="M724.032 321.888l-0.32 0.192-2.112-1.696 3.008-0.448c0 0 129.664-326.528 102.496-373.856-53.408-40.48-282.944 179.040-312.768 208.032l0.192-1.12c0 0-257.888-257.536-317.6-211.488-35.776 25.984 94.304 384.96 94.304 384.96l0.608 0.096c-47.776 27.296-310.176 212.672-290.784 279.392 0.576 40.16 365.248 37.376 376.864 35.808 1.408 8.16 63.904 318.24 134.112 318.24 70.56 0 131.2-317.376 131.936-321.792h0.192l0.064-0.32 0.8 1.696c0 0 377.376 5.792 377.952-33.632 21.376-73.376-298.944-284.064-298.944-284.064z" />
<glyph unicode="&#xe73e;" glyph-name="key1" d="M448 320h-96v1.952c-10.56-1.088-21.152-1.952-32-1.952-176.704 0-320 143.264-320 320s143.296 320 320 320 320-143.264 320-320v-128h32v-32h32v-32h32v-32h32v-32h32v-32h32v-32h32v-32h32v-32h32v-32h32v-32h32v-32h32v-192c0-17.696-14.304-32-32-32h-128c-17.696 0-32 14.304-32 32v128h-160c-17.664 0-32 14.304-32 32v128h-160M256 832c-70.688 0-128-57.312-128-128s57.312-128 128-128 128 57.312 128 128-57.312 128-128 128z" />
<glyph unicode="&#xe73f;" glyph-name="chart2" d="M576 512v448c265.088 0 448-182.912 448-448h-448zM480-64c-265.088 0-480 214.912-480 480 0 289.088 210.912 480 512 480v-448h448c0-265.088-214.912-512-480-512z" />
<glyph unicode="&#xe740;" glyph-name="chart21" d="M576 512v448c265.088 0 448-182.912 448-448h-448zM480-64c-265.088 0-480 214.912-480 480 0 289.088 210.912 480 512 480v-448h448c0-265.088-214.912-512-480-512z" />
<glyph unicode="&#xe742;" glyph-name="plus21" d="M992 576h-352v352c0 17.664-14.304 32-32 32h-192c-17.696 0-32-14.336-32-32v-352h-352c-17.696 0-32-14.336-32-32v-192c0-17.696 14.304-32 32-32h352v-352c0-17.696 14.304-32 32-32h192c17.696 0 32 14.304 32 32v352h352c17.696 0 32 14.304 32 32v192c0 17.664-14.304 32-32 32z" />
<glyph unicode="&#xe747;" glyph-name="search21" d="M1014.88 33.504c12.192-12.192 12.192-31.968 0-44.192l-44.192-44.192c-12.224-12.192-32-12.192-44.192 0l-309.376 309.376c-3.36 3.36-5.6 7.328-7.104 11.552-63.456-46.368-141.376-74.048-226.016-74.048-212.064 0-384 171.936-384 384s171.936 384 384 384c212.064 0 384-171.936 384-384 0-84.64-27.68-162.56-74.048-226.016 4.224-1.504 8.192-3.712 11.552-7.104l309.376-309.376zM384 832c-141.376 0-256-114.624-256-256s114.624-256 256-256 256 114.624 256 256c0 141.376-114.624 256-256 256z" />
<glyph unicode="&#xe753;" glyph-name="home31" d="M922.592 351.392l-90.88 90.912v-474.304c0-17.696-14.272-32-31.968-32h-127.872c-17.696 0-31.968 14.304-31.968 32v383.808c0 17.696-14.304 32-32 32h-191.84c-17.664 0-31.968-14.304-31.968-32v-383.808c0-17.696-14.336-32-31.968-32h-127.872c-17.664 0-32 14.304-32 32v474.304l-90.88-90.912-101.376 101.44 506.944 507.168 5.056-5.056 5.056 5.056 250.72-250.848v186.432h127.904v-314.4l128.32-128.352-101.408-101.44z" />
<glyph unicode="&#xe754;" glyph-name="earth1" d="M512-64c-282.752 0-512 229.248-512 512s229.248 512 512 512c282.752 0 512-229.248 512-512s-229.248-512-512-512zM926.976 490.912c0.832 0.416 1.28 1.12 1.6 2.24 0.672-3.552 2.304-6.688 4.928-8.992 0.064-0.32-0.096-0.256 0.064-0.704 0.256 0 0.448 0.192 0.672 0.192 2.688-2.176 6.016-3.648 9.76-3.648 5.76 0 10.56 3.2 13.376 7.712 0.192-0.224 0.512-0.512 0.672-0.768-0.032 0.512-0.096 1.024-0.16 1.536 1.248 2.272 2.112 4.768 2.112 7.52 0 8.832-7.2 16-16 16-5.632 0-10.304-3.072-13.184-7.424-0.128 0.096 0 0.48-0.352 0.352 0.416 1.216-0.704 4.32-2.464 7.648v-16.576c0-1.824-0.512-3.456-1.024-5.088zM191.744 495.712c0 4.832-11.008 13.056-13.856 13.056 0 0.864-4.48 10.72-6.176 10.72 0 3.328-11.68 18.272-13.536 11.744-1.216-4.224 8.928-9.92 8.928-14.816 1.888 0 9.824-15.040 11.392-17.664 17.344-29.312-12.96-9.28-12.96 3.136-3.872 1.92-9.984 16.672-9.984 20.704-2.272 1.824-8.992 16.064-8.448 16.064 0 9.344-5.152 13.824-15.392 13.824-0.48 0.928-9.088 13.024-9.248 13.024 0 3.84-6.912 15.744-10.752 17.632 0 7.968-4.096 17.792-2.272 26.048 0 8.672-0.448 18.496-3.392 27.392-26.72-57.376-42.048-121.12-42.048-188.576 0-193.312 122.688-357.568 294.272-420.384 0.192 15.872 1.376 34.88 4.992 34.88 0 2.368 2.016 12.288 3.84 12.288 0 6.080 0.736 13.408 0 20.704-2.272 4.576 3.008 10.432 4.608 17.632 8.864 4.448 2.592 49.056 9.28 49.056 0 22.304 4.992 35.296 1.504 55.968 1.696 0-10.080 12.512-9.984 12.288-11.296 0-19.2 18.112-19.2 26.048-1.088 3.488-3.872 8.704-3.872 13.024 2.592 0-16.16 27.392-16.16 26.848-9.92 5.504 0.544 13.184 1.536 22.208-8.608 2.848 0.096 26.080 3.84 26.080 0.384 2.944 1.92 4.96 4.64 6.112 1.92-7.648 10.848 3.808 3.84 3.808 0 5.056-0.576 15.872 0 18.4 0 7.808-6.912 23.104-12.288 6.912-5.76 2.848-20.288 2.336-21.536 11.488 0.896 4.512-8.288 13.728-11.52 15.328 3.008 7.872-15.584 18.4-22.304 18.4 0 1.696-3.552 0.928-4.608 3.072-6.848 0-8.416 9.216-16.16 9.216-8.928 0-17.92 6.112-26.144 6.112-2.752 5.472-15.52 3.328-18.464 9.216-6.688 0-9.312 12.672-9.504 17.344-0.288 5.76-4.864 25.664-12.864 25.664zM839.936 752.512c-0.064-0.192 0.064-0.064-0.256-0.704 0.48 0 1.056-0.544 1.6-0.768-0.48 0.48-0.896 0.96-1.344 1.472zM849.568 741.92c1.12-2.176 1.952-4.192 1.696-5.44 1.12-0.032 1.664 0.576 2.56 0.8-1.376 1.568-2.88 3.040-4.256 4.64zM877.376 596.128c0.512 13.824-11.52 11.52-15.328 19.2-3.968 0-5.408 3.072-10.784 3.072-3.488 1.184-6.24 0.352-8.256-2.496-8.224-3.136-3.264 4-9.44 4 0.288 7.904-2.848 10.080-11.552 9.216-4.992-11.264-12.672-18.016-11.52-30.688 3.68-0.832 3.040-1.664 2.304-5.344 4.896-0.256 34.592 1.536 34.592 4.608 1.024 0 6.176-10.592 6.176-1.536 4.128 0 6.304-9.696 16.16-6.88 0-1.984 16.448 6.848 7.648 6.848zM878.944 432.832c0.576 2.816-1.408 4.064-3.072 6.912 4.384 0-13.856 33.824-13.856 39.104-2.784 1.376-6.336 11.040-6.976 14.56-3.744 2.496-7.616 10.688-9.216 15.328-3.808 2.528-13.088 13.856-14.592 19.168 5.504-0.608 13.824-1.728 13.824 5.376-3.712 0-4.256 4.576-0.736 4.576-1.152 4.704 2.496 8.096 3.296 11.776 0.96 4.448 2.848 11.296 2.848 16.608-5.28 0-6.56-0.896-10.752-2.304 0-3.104-9.376 0.768-10.752 0.768-2.016 4.032-16.64-5.248-20.736 3.072-6.624 5.984-4.832 10.592-6.976 19.040-1.088 4.288-6.944 4.544-10.496 5.248-10.016 1.952-2.784-11.936-3.328-15.104 6.144 0-3.872-7.616-3.872-11.488-10.368 2.24-6.912 13.792-13.024 16.864-1.824 3.072-0.384 5.376-4.64 5.376 0 4.096 2.176 11.52-2.304 13.024 0 1.984-8.704 2.784-9.984 5.376-5.504 0-18.304 20.8-22.24 13.792-2.464-4.48 2.080-5.568 3.008-9.216 7.968 1.568 7.2-13.12 16.928-11.488 0-2.048 0.256-4.128 0.736-6.144 7.2 1.696 6.368-5.344 9.984-5.344-2.624-3.488-10.944 5.568-8.672-2.048 1.312-4.416 0.576-8.192-5.152-12.512 0 4.768-0.384 17.632-5.376 17.632-3.392 6.784-13.472 5.152-17.728 11.488-3.456 0-4.8 10.752-10.752 11.488-1.12-1.568-5.312-3.072-6.944-3.072-3.232-6.496-21.504-0.672-21.504-1.536-0.288-0.064-10.24-24.384-10.816-27.584-1.12-6.88-6.656-7.008-8.32-13.536-0.832-3.264-20.896-1.728-20.896-4.128-8.672 2.88-16.16 8.96-16.16 18.4-0.704 0 1.632 24.096 3.104 27.616 1.76-0.48 2.112-1.088 3.104-3.072 5.312 1.984 17.696-1.312 17.696 4.608 5.152-0.128 6.688-2.176 4.608-6.144 4.8-0.896 13.088-2.112 13.088 4.608-2.816 0-3.104 0.256-3.104 3.072 9.216 9.568-6.912 18.208-6.912 22.976-3.264 1.088-9.92 8.16-5.184 5.504 4-2.208 18.624-6.784 12.864 2.944 0.384 0.128 0.64 0.384 0.736 0.736 1.632-1.152 8.512-8.224 8.512-1.536 1.888 0 9.184 4.608 3.072 4.608 0.576 3.456 0.448 6.336 0.736 8.448 9.76-5.248 4.32 3.584 9.248 6.88 0-6.368 5.248 3.072 8.448 3.072 3.808 5.664 12.512 1.28 14.624 7.68-4.704 1.536-3.84 13.312-3.84 17.6 5.664-0.928 11.968 7.648 12.832 1.76 0.32-2.272 0.608-8.544 1.76-9.408 8.416-4.416 6.176 2.528 6.176 6.88-2.816 0-6.56 9.856-6.944 14.592-2.304-0.32-6.016-1.28-6.944-3.040-8.384 0-14.080 3.040-20.736 3.040-0.512 1.024-8.512 9.984-7.68 9.984-4.672 8.032 4.672 5.696 6.144 6.080 0 7.616 31.712 6.272 33.088 18.432-10.432 0 10.752 17.664 10.752 17.6 7.072 6.048 10.816 11.264 19.616 11.936 3.712 0.256 44.992 11.648 44.992 6.496 1.664-0.064 7.168-0.128 12.864-0.32-79.904 74.304-186.688 120.064-304.416 120.064-114.016 0-217.792-42.944-296.864-113.12 0.704-1.6 1.248-3.136 1.216-4.224 4.192 0.288 10.208 2.976 11.552-2.336-2.080 0.032-4.16 0.288-6.144 0.8 1.472-11.872-5.184-4.608-10.752-4.608 0 0.288-2.464 1.28-5.088 1.984-1.696-1.6-3.488-3.104-5.184-4.704 0.192-0.512-0.096-0.544 0.224-1.12 1.792 0 0.864-2.784 5.984-4.48 5.92-2.016 12.416-3.136 18.656-4.128 5.056-0.8 7.968 0.928 12.288 0.928 0 0.64 10.56 5.344 3.104 5.344 1.024 4.224-0.864 5.28-5.408 5.344 0.384 4.48 11.040 1.536 15.392 1.536 3.328 5.6 0.096 4.928 3.040 10.016 3.52 6.24 7.712 0.832 10.016 6.816 3.488-1.28 6.592-3.168 7.712-7.584 2.784-2.304 16.928-23.168 16.928-8.416 5.056-1.696 7.584-11.168 7.68-16.128 9.184 1.344 9.984 8.224 9.984 15.36 2.112 0-0.768 3.424-0.768 4.608 3.424 1.248 7.712-3.264 7.712 1.504 1.472 0 1.536-1.472 1.536-3.072 4.768-0.928 7.84 0.544 10.752-0.48 2.016-0.704 0.992-11.168 0.064-14.848-1.152-4.672-10.080-4.736-10.080-6.912-10.112-7.552 11.936-11.488 15.392-16.096-2.080 0-9.984 1.024-9.984 1.504-4.992 0-17.088-5.28-21.536-1.504 6.208 0 8.288 7.456 9.248 14.56-5.728 2.144-12.48-1.376-14.080-7.072-2.688-9.408-8.928 0.384-12.064-5.952-1.216-0.384-12.32-5.536-12.32-3.808-12.48-1.76-9.216-12.352-9.216-23.776 4.96-2.976 15.040-11.456 14.592-16.096 11.2-1.984 15.296-3.168 25.376-4.608 0.832-1.632 4.16-3.168 6.176-3.808 0-6.592 5.984-5.408 11.52-5.408 0 8.416 9.792-7.008 10.752-9.952-1.344 0 2.304-8.608 3.072-11.52-1.536 0.544-2.016 0-1.536-1.536 4.864-1.792 12.576-1.28 13.856 3.84-4.672 0-3.104 5.344-3.104 8.448-4.8 3.2-4.064 9.376 0.768 10.72 0-4.352 15.84 2.72 6.912 6.112 2.176 4.896 3.648 12.416 0.096 16.672-2.272 2.688-5.12 0-6.24 4.032 6.048 1.504 1.6 13.024 1.536 18.4 1.92 0.736 6.912-1.216 6.912 0 5.92 0 15.776-7.488 19.232 1.568 9.888-4.512 2.016-8.8 12.32-5.376 0-2.432 11.616-13.792 13.088-13.792 0-0.544-0.288-3.84 2.272-3.84 0-2.464-1.536 1.408-1.536-3.040 1.44-0.16 9.248-1.568 9.248 1.504 4.96 0 8.448 6.080 8.448 10.72 3.104 2.016 8.544-16.864 12.288-16.864 2.752-4.288 11.552-10.528 11.552-14.56 1.856-1.888 3.808-1.376 3.808-6.912 2.336 0 6.944 9.184 6.944 0.768 2.176 0 8.512-4.672 9.248-8.416-5.536 0-0.288-5.376-3.136-5.376 0-5.312-11.872-1.088-14.56-0.768-3.68-16.48-25.888-4.64-39.328-8.896-7.072-2.24-20.736-17.824-21.472-25.6 8.576-0.096 12.352 7.424 20 9.984 6.24 0 7.456 3.776 13.088 5.344 0-1.568 1.536-0.736 1.536-2.304-10.944 0-4.288-7.072-1.088-12.224 1.984-3.2 4.256-4.736 6.784-5.728-1.056-1.856-1.92-3.712-2.592-5.792 0-0.032-0.032 0-0.032-0.032-2.080-0.704-6.144-2.208-6.944-3.84-12.384-1.376-6.272-0.544-5.44 2.432 0.448-1.056 4.896-0.096 4.704-0.128-0.736 3.712-1.856 3.2-0.768 5.344-6.72 0-9.984-3.072-15.392-3.072-0.896-1.824-5.6-6.144-7.68-6.144-1.568-4.736-5.12-13.344-9.248-16.096 0 1.248-10.944-6.88-9.984-6.88-2.432-3.936-5.088-3.808-6.176-9.952-0.736-0.384-3.84-10.656-3.84-12.256-4.768-3.168-6.528-16.096-14.624-16.096-4.96-9.856-13.856-8.544-13.856-21.472 3.008-3.072 4.16-16.672 5.088-21.024 1.152-5.408 2.944-11.040-4.288-11.168-0.512 0.8-5.568 8.448-4.64 8.448 0 3.168-3.872 13.312-6.144 16.48-3.040 4.256-8.672-0.672-13.088 1.184-1.888 3.776-14.656 4.608-19.2 4.608 0.736-2.848 2.816-3.744 3.072-6.912-3.776-1.536-5.952-3.264-9.856-2.72-6.688 0.928-5.888 6.144-13.248 5.408-11.776-1.184-20-10.944-20-22.624-1.312 0-1.312-23.008 0-23.008 0-6.496 5.376-11.2 5.376-16.096 5.216 0 11.072-11.488 16.16-11.488 0.576-4.064-2.56-4.704 6.144-4.64 0 0.448 4.736 2.976 5.376 6.144-6.016 1.472-0.032 9.216 3.84 10.72 0-5.472 7.68 1.824 7.68 2.304 0.864 0.352 8.48 3.072 8.48 3.072 0 6.208 5.792-0.608 1.536-3.072-4.16 0-3.84-6.912-6.144-6.912-0.992-4.928-2.944-9.216-4.096-14.016-1.472-5.92 3.328-6.528 1.792-12.064 6.112-1.152 12.288-0.032 18.464 0 0.032 1.088-0.192 2.144-0.768 3.072 8.928 0 0.768-16.864 6.176-16.864 0-6.368 3.072-11.328 3.072-15.328 4.16-2.752 6.656-6.432 5.376-11.488 5.12-0.672 16.128-1.984 16.128 4.608 7.776 0 8.32-5.28 7.744-10.72 15.488 0 5.792 15.328 12.256 15.328 0.608 2.528 1.664 2.976 3.168 1.312 3.168-1.696 5.568 3.168 8.096 4.704 0.8 0.544 3.616 2.176 4.128 2.176 2.176-1.312 2.368-0.928 3.328-2.4 4.224 0.032 8.48 2.4 12.096 4.896 5.536-0.672 3.744-12.576 14.112-13.312 4.16-0.288 13.792-1.44 17.376 1.024 0.896 0.608 4.192-2.080 4.544-3.232 3.456 0 3.2-3.008 4.672-2.944 0.352-0.672 0.864-0.928 1.568-0.736 0.448-1.312 3.2-1.696 4.64-5.344 0-3.328 6.912-3.904 6.912-6.112 4.96-2.496-1.696-3.168 5.92-5.472 4.192-1.312 8.064-3.424 12.576-3.744 1.44 5.472 6.112-0.736 8.48-0.736 1.216-2.496 1.856-0.608 3.040-3.072 7.136-5.952 2.432-3.648 5.376-9.984 3.424-2.24 4.512-10.048 5.44-14.56-2.752 0-0.8-10.528-0.8-11.52-3.328 0 8.512-6.304 8.512 1.568 4.864-0.8 8.064-6.112 11.52-6.112-2.016-4.64 5.376-8.128 5.376-0.8 7.296-0.736 5.344-11.616 4.64-15.328 5.408 0 6.976 3.008 11.584 3.584 4.992 3.168 10.56 5.472 16.864 5.472 17.696 0 32-14.304 32-32 0-15.936-11.872-28.576-27.136-31.008-2.048-2.336-3.904-4.352-4.032-4.352 0-1.536-0.352-16.832-0.8-16.832 0-3.072-2.336-19.936-4.608-19.936 0-8.672-5.664-10.24-7.68-18.4-4.672-3.456-17.312-9.216-19.264-13.024-3.616 0-6.304-3.072-9.984-3.072-0.512-1.056-8.352-8.448-6.944-8.448-0.576-5.44 0.416-18.24-2.528-21.824-1.984-2.368-4.832-2.112-3.584-5.824-4.32 0 0.256-3.072-6.56-3.072-4.288 0-11.936-6.112-12.16-11.296-0.288-6.336-1.984-10.912-7.424-14.784 0-2.176-9.984-2.816-9.984-8.448 0.928 0 0-10.432 0-11.488-2.976 0.096-10.272-2.88-11.52-5.344-10.048 0-8.832-1.024-15.36-5.376 0-1.344-0.928-6.112-2.304-6.112 0-7.776-5.536-0.704-10.016-4.64 1.76 0 4-7.648 3.072-7.648 0-6.752-4.192-7.328-8.448-12.288-2.016-1.344-3.936-6.912-5.376-6.912 0-4.544-2.272-8.672-2.272-13.024 0.96 0 0.064-1.952 0.736-3.776 2.144 0.608 2.208 3.040 3.072 3.040 0 3.84 6.112-2.272 2.304-2.272-3.168-4.8-6.592-4.896-8.48-11.52-1.92 0-3.584-1.856-4.992-4.032 37.696-10.272 77.248-16.288 118.272-16.288 157.568 0 295.872 81.536 375.744 204.576 0.48 11.328 2.24 22.144 3.488 25.888 3.136-2.304 5.472-6.624 7.68 0-5.536 1.088-4.192 3.008-2.304 7.648 2.112-1.28 6.368-2.848 9.824-2.624 1.056 1.984 1.888 4.096 2.944 6.080-3.136 2.432 1.184 8.736 2.688 5.664 0.8 1.536 1.504 3.136 2.24 4.672-0.352 0.096-0.256-0.128-0.768 0.032 0 2.784 0.512 2.432 2.336 3.84 0.032-0.288 0-0.288 0.064-0.544 27.936 58.464 44.064 123.648 44.064 192.768 0 2.272-0.32 4.448-0.352 6.72-0.832-3.136-2.4-6.528-4.608-7.296 0-2.016-22.88-11.968-21.504-16.096-4.032 0-18.176-4.032-20.768-9.184-2.848 0-14.336-4.064-15.392-6.144-14.272-0.032-11.552 16.832-18.432 16.832zM944 608h-16.992c-0.128 0.16-0.256 0.192-0.384 0.416-0.864 0-4.48 8.128-3.072 9.984 1.376 0 2.016-0.128 2.752-0.192-1.44 3.52-3.008 6.976-4.576 10.464-3.456-2.368-6.496-5.376-11.264-5.664 0-1.312-6.816-14.56 0-14.56 0-0.256 0.128-0.448 0.192-0.672-8.16-0.768-14.656-7.424-14.656-15.776 0-8.832 7.168-16 16-16h6.304c0.384-2.912 1.952-5.44 7.552-6.688 1.76-7.392 14.944-10.016 16.928-2.272-5.568 0-3.744 5.344-3.264 8.96h4.48c8.8 0 16 7.168 16 16s-7.2 16-16 16zM897.376 399.936c1.12-0.064 8.512 0.128 8.512 1.44 6.688 0 15.744 0.928 22.304 3.104 0-9.92-8.352-15.456-6.944-25.312-5.536 0-3.104-5.696-3.104-7.648-3.584-2.208-4.128-6.24-8.448-8.448 0-4.448-9.984-11.808-12.928-15.616-3.328-4.256-13.344-11.648-14.656-17.056 0.352 1.28-18.304-19.424-13.952-19.424 0-3.872-5.248-34.496 1.536-34.496 0-2.688 5.792-28.384 2.272-28.384 0-8.256-5.376-13.312-5.376-19.904-2.624-1.792-6.368-2.784-7.68-5.408-4.704 0-6.976-9.984-9.216-9.984 0-10.656-3.104-18.56-3.104-30.656 0.864 0-6.144-17.248-6.144-18.368-5.664-3.808-20-17.472-20-24.576 0 0-9.984-14.016-11.52-16.096-3.008 0-26.176-4.352-26.176-6.144-4.928 0-17.664-3.872-20.736 0.768 0 4.864-2.656 11.040-3.072 17.664-2.368 0-2.752 9.952-5.376 9.952 0 2.112-14.688 31.456-12.32 31.456 0 3.040-2.624 13.024-3.072 13.024 0 10.56-7.712 19.36-7.712 29.12-2.272 0-6.976 21.44-4.608 21.44 0 11.264 3.936 18.624 5.568 31.136 1.824 13.728-0.864 22.080-3.264 31.776-1.312 0-5.728 7.328-6.176 9.184-6.176 4.096-8.448 12.224-8.448 19.904 4.032 4.608 5.632 21.92 4.64 27.616-7.776 3.68-10.88 2.304-19.264 2.304-4.96 9.952-38.272 3.808-47.712 3.808 0-5.44-23.2 1.056-25.376 5.376-5.664 0-16.896 12.032-16.896 17.632-6.208 4.128-16.128 24.672-16.128 31.424-5.376 2.688-3.744 13.056-0.8 13.056 0.736 2.88-1.888 11.968-3.136 16.288-0.928 3.232 3.136 6.72 3.136 10.56 0 10.688 0.256 15.616 6.24 27.040 1.888 3.584 4.288 6.944 6.048 11.424 3.2 8.032 4.16 0.384 8.48 7.552 4.128 2.048 6.528 8.896 10.784 12.256 1.856 2.464 1.92 3.488 0 5.376 0.832 0 5.376 11.808 5.376 14.528 6.016 8.352 1.76 4.544 7.68 3.84 2.176 2.368 5.792 8.448 9.216 8.448 1.504 2.976 5.28 4.608 8.48 4.608 0-4.608 12.544 1.504 13.856 1.504 2.144 4.32 15.968 9.216 19.232 9.216 0 5.248 27.264-1.472 31.552-0.768 0 0.768 0 1.536 0 2.304 5.824-1.376 16.448-24.736 15.36-29.92 4.48 0 8.64 0.736 11.552 0 0-4.96 9.344-6.176 13.6-6.4 5.92-0.288 23.296 0.608 23.296 8.704 4.576 0 8.64-3.2 7.744-8.416 5.184-0.576 36-1.184 33.824-7.648 4.512 0 5.664-7.712 9.984-7.712-0.864-5.312 5.376-19.168 9.984-19.168 0-4.608 2.88-13.088 6.944-16.064 2.176-6.592 9.376-20.48 16.128-24.544-2.88-5.44 4.384-9.92 6.176-15.328-0.416 0 1.568-8.032 3.808-9.216 0-5.44 11.456-27.616 17.728-27.616 0.416-2.688-5.888-3.904 2.304-4.512zM731.264 571.616c1.184 4.576 3.872 1.024 6.368 0.192 5.92-1.92 3.872 0.096 8.256 2.080 0-12.48-7.168-3.008-14.624-2.272zM715.072 594.624c3.136 0 4-14.080-4.608-11.488 0 3.488-2.208 9.952 2.336 9.952 1.312-5.44 2.272-3.232 2.272 1.536zM711.264 603.808c3.552-1.536 5.12-1.024 4.608 1.536 4.672-1.536-0.608-4.864-1.536-8.448-2.4 2.368-1.664 3.2-3.072 6.912zM628.928 672.064c-7.552 1.952 7.776 4.192 8.448 6.112-2.56 0-4.32 2.656-3.328 4.896 1.152 2.656 3.040-3.168 5.664-1.856 3.104 0.32 9.216 4.96 6.080-4-3.2-9.088-6.112-15.744-17.632-15.904-4.128 4.16-0.16 6.336 0.768 10.752zM657.408 703.488c6.208 0 0.768-4.608-0.608-4.608 1.056-0.416-0.192-4.128-0.192-5.344 5.76 0.064 5.856 3.584 9.984 4.608-0.864-5.152-6.624-6.144-0.992-10.56 2.976-2.336 6.016-5.088 4.832-8.64 7.328 0 8.416-7.040 6.912-15.328 4.064 0 3.872-0.192 3.872 3.872 3.936-1.088 3.648-4.64 0-4.64-3.648-7.2-13.216-6.88-20-6.88-0.064 5.568-1.12 5.92-6.272 4.352-7.040-2.144-1.536 5.6-1.408 9.44 0.768 0 15.968-0.704 6.912 2.304-0.48 8.256-2.336 10.72-9.984 10.72 0 5.632-1.984 5.216-2.912 11.392-1.312 9.12 7.136-0.64 9.856 9.312zM655.072 653.664c0-1.888-3.84-3.392-4.608-0.736 0.736-0.256 1.024 0 0.736 0.736 1.312 0 2.624 0 3.872 0zM592 736h-32c-8.832 0-16 7.168-16 16s7.168 16 16 16h32c8.832 0 16-7.168 16-16s-7.168-16-16-16zM405.568 452.8c1.792 0 3.872-0.704 3.872-2.304-2.336 0-5.344-2.208-3.872 2.304zM376.384 451.232c-1.28-2.432-11.648-2.016-13.088 0.8 3.84 0 6.816-1.568 10.752 0 0 2.112-1.76 3.808-3.072 6.112 4.192 0 8.896-3.2 14.624-3.072 0 3.552-1.568-0.768 0 3.84 2.4-0.608 8.192-6.112 8.448-8.416-8.416 0.896-8.8 0.736-17.664 0.736zM342.528 469.632c-3.936 0-11.52 3.424-13.856 6.912 3.808-0.16 7.584-1.728 9.984 2.304 9.76-0.992 10.624-7.712 18.464-7.712 1.472-2.592 9.856-8.544 1.76-9.312-6.112-0.576-13.792 2.752-16.352 7.808zM348.672 448.16c-2.848 0-7.552-1.248-5.376 4.64 3.776-0.512 5.568-2.080 5.376-4.64zM354.048 448.928c-1.536-0.256-3.072-0.512-4.608-0.768 0.448 3.552 3.808 7.52 4.608 0.768zM382.496 415.232c-0.608-2.144-0.512-2.272-3.040-2.272 0.256 0.992 0.48 1.984 0.736 3.040 0.8-0.256 1.536-0.512 2.304-0.768zM313.28 478.848c0.736-0.256 1.536-0.544 2.304-0.768 0.992-3.808 3.072-1.92 5.376-0.768 0-4.448-10.304-5.728-7.68 1.536z" />
<glyph unicode="&#xe758;" glyph-name="heart21" d="M736 896c-76.928 0-138.592-27.616-192.96-82.016-0.032-0.032-0.064-0.064-0.096-0.096h-0.032l-30.912-38.944-30.912 36.576c-0.032 0.032-0.064 0.064-0.096 0.096h-0.032c-54.4 54.432-116.032 84.384-192.96 84.384s-149.248-29.952-203.648-84.352c-54.368-54.4-84.352-126.72-84.352-203.648 0-76.864 29.92-149.184 84.256-203.552l382.304-385.504c12-12.128 28.384-18.944 45.44-18.944s33.44 6.816 45.44 18.944l382.272 385.504c54.336 54.368 84.288 126.656 84.288 203.552 0 76.928-29.984 149.248-84.352 203.648-54.4 54.4-126.72 84.352-203.648 84.352v0z" />
<glyph unicode="&#xe759;" glyph-name="bookmark1" d="M928-64h-672v1024h320v-576l96 128h64l96-128v576h96c17.696 0 32-14.336 32-32v-960c0-17.696-14.304-32-32-32zM64-32v960c0 17.664 14.304 32 32 32h96v-1024h-96c-17.696 0-32 14.304-32 32z" />
<glyph unicode="&#xe75a;" glyph-name="wrench21" d="M799.424 649.024c11.936-11.936 31.296-11.936 43.2 0l169.056 133.088c28.128-88.448 8.256-188.864-61.92-259.040-66.944-66.976-161.472-88.064-246.848-65.536l-200.512-200.512c22.528-85.408 1.408-179.904-65.504-246.848-70.176-70.176-170.624-90.048-259.072-61.92l133.152 169.024c11.936 11.968 11.936 31.296 0 43.232l-86.4 86.368c-11.936 11.936-31.296 11.936-43.2 0l-169.056-133.088c-28.128 88.448-8.256 188.832 61.888 259.008 66.976 66.976 161.472 88.096 246.88 65.536l200.544 200.544c-22.56 85.376-1.44 179.904 65.472 246.848 70.176 70.176 170.624 90.048 259.104 61.952l-133.152-169.088c-11.904-11.904-11.904-31.264 0-43.168l86.368-86.4z" />
<glyph unicode="&#xe75b;" glyph-name="calendar31" d="M385.536 417.248c-5.696-8.224-12.64-28.832-20.864-33.888-8.224-5.024-17.504-8.544-27.808-10.496-10.336-1.984-21.024-2.848-32.064-2.528v-48.864h78.944v-193.472h63.712v319.872h-50.688c-1.792-12.192-5.536-22.4-11.232-30.624zM736 704h64c17.696 0 32 14.336 32 32v192c0 17.664-14.304 32-32 32h-64c-17.696 0-32-14.336-32-32v-192c0-17.664 14.304-32 32-32zM224 704h64c17.664 0 32 14.336 32 32v192c0 17.664-14.336 32-32 32h-64c-17.664 0-32-14.336-32-32v-192c0-17.664 14.336-32 32-32zM960 832h-64v-160c0-17.664-14.304-32-32-32h-192c-17.696 0-32 14.336-32 32v160h-256v-160c0-17.664-14.336-32-32-32h-192c-17.664 0-32 14.336-32 32v160h-64c-35.328 0-64-28.672-64-64v-768c0-35.328 28.672-64 64-64h896c35.328 0 64 28.672 64 64v768c0 35.328-28.672 64-64 64zM960 32c0-17.696-14.304-32-32-32h-832c-17.664 0-32 14.304-32 32v512c0 17.664 14.336 32 32 32h832c17.696 0 32-14.336 32-32v-512zM511.52 384.576h158.976c-29.952-36.864-54.048-74.4-72.48-118.56-18.4-44.192-20.416-90.176-23.968-137.984h68.192c0.288 21.312-6.24 44.32-1.632 68.992 4.672 24.672 11.264 49.024 19.744 73.12 8.544 24.064 19.136 46.752 31.872 68.064 12.672 21.344 27.296 39.328 43.744 53.952v55.744h-224.48v-63.328z" />
<glyph unicode="&#xe75f;" glyph-name="droplet1" d="M513.216 960c0 0-321.216-381.472-321.216-704.736 0-323.296 318.784-319.264 318.784-319.264s321.216 4 321.216 321.248-318.784 702.752-318.784 702.752zM512 64c-106.016 0-192 85.984-192 192 0 67.872 35.648 126.816 88.864 160.832-15.264-20.384-24.864-48.96-24.864-80.832 0-6.624 0.608-13.024 1.376-19.328-0.288-4.288-1.376-8.32-1.376-12.672 0-8.224 1.344-16.096 2.432-24-1.504-7.776-2.432-15.776-2.432-24 0-70.688 57.312-128 128-128 8.224 0 16.224 0.928 24 2.4 7.936-1.088 15.776-2.4 24-2.4 4.352 0 8.384 1.056 12.64 1.408 6.304-0.8 12.736-1.408 19.36-1.408 31.872 0 60.448 9.6 80.832 24.832-34.016-53.184-92.96-88.832-160.832-88.832z" />
<glyph unicode="&#xe760;" glyph-name="mouse1" d="M496 448c-70.688 0-128 57.312-128 128h-192v-320c0-176.704 143.264-320 320-320s320 143.296 320 320v320h-192c0-70.688-57.312-128-128-128zM368 704c0 70.688 57.312 128 128 128s128-57.312 128-128v-64h192c0 176.736-143.264 320-320 320s-320-143.264-320-320h192v64zM464 736v-192c0-17.664 14.336-32 32-32s32 14.336 32 32v192c0 17.664-14.336 32-32 32s-32-14.336-32-32z" />
<glyph unicode="&#xe761;" glyph-name="refresh" d="M752 384c0-141.376-114.624-256-256-256s-256 114.624-256 256c0 130.72 125.344 211.040 256 222.432v-158.432l320 224v32l-320 256v-161.344c-235.104-13.824-448-177.952-448-414.656 0-247.424 200.576-448 448-448s448 200.576 448 448h-192z" />
<glyph unicode="&#xe765;" glyph-name="star3" d="M406.752 129.12c-210.496-167.68-267.264-127.136-170.272 121.824-270.4-13.952-292.096 51.808-65.056 197.056-227.040 145.28-205.344 210.976 65.056 197.088-96.96 248.928-40.192 289.536 170.272 121.792 70.144 257.472 140.32 257.472 210.496 0 210.464 167.744 267.264 127.136 170.24-121.792 270.432 13.888 292.096-51.808 65.056-197.088 227.040-145.248 205.376-211.008-65.056-197.056 96.992-248.928 40.224-289.504-170.24-121.824-70.144-257.504-140.352-257.504-210.496 0z" />
<glyph unicode="&#xe766;" glyph-name="pointer1" d="M534.048 395.040l169.952-395.040-128-64-148.672 405.696-235.328-213.696v832l640-512-297.952-52.96z" />
<glyph unicode="&#xe76c;" glyph-name="cancel1" d="M983.072 743.232l-294.304-296.096 294.304-294.336c12.32-12.288 12.32-32.224 0-44.544l-133.632-133.6c-12.256-12.32-32.192-12.32-44.512 0l-293.824 293.824-292.064-293.824c-12.288-12.32-32.224-12.32-44.544 0l-133.6 133.6c-12.288 12.32-12.288 32.256 0 44.544l292.064 293.824-292.032 292.032c-12.288 12.288-12.288 32.224 0 44.544l133.6 133.6c12.288 12.32 32.224 12.32 44.544 0l291.52-291.52 294.368 296.096c12.32 12.32 32.256 12.32 44.512 0l133.632-133.6c12.256-12.32 12.256-32.256-0.032-44.544z" />
<glyph unicode="&#xe772;" glyph-name="basket1" d="M928 512h-832c-17.696 0-32 14.304-32 32s14.304 32 32 32h64l192 352c0 17.696 14.304 32 32 32h64c17.696 0 32-14.304 32-32l-192-352h448l-192 352c0 17.696 14.304 32 32 32h96c17.696 0 32-14.304 32-32l160-352h64c17.696 0 32-14.304 32-32s-14.304-32-32-32zM96 448h832c17.696 0 32-14.304 32-32l-64-448c0-17.696-14.304-32-32-32h-704c-17.696 0-32 14.304-32 32l-64 448c0 17.696 14.304 32 32 32zM704 64h64c17.696 0 32 14.304 32 32l32 192c0 17.696-14.304 32-32 32h-64c-17.696 0-32-14.304-32-32l-32-192c0-17.696 14.304-32 32-32zM448 96c0-17.696 14.304-32 32-32h64c17.696 0 32 14.304 32 32v192c0 17.696-14.304 32-32 32h-64c-17.696 0-32-14.304-32-32v-192zM224 96c0-17.696 14.304-32 32-32h64c17.696 0 32 14.304 32 32l-32 192c0 17.696-14.304 32-32 32h-64c-17.696 0-32-14.304-32-32l32-192z" />
<glyph unicode="&#xe775;" glyph-name="trashcan" d="M672 64c17.696 0 32 14.304 32 32v448c0 17.696-14.304 32-32 32s-32-14.304-32-32v-448c0-17.696 14.304-32 32-32zM352 64c17.664 0 32 14.304 32 32v448c0 17.696-14.336 32-32 32s-32-14.304-32-32v-448c0-17.696 14.336-32 32-32zM928 768h-128v64c0 70.688-57.312 128-128 128h-320c-70.688 0-128-57.312-128-128v-64h-128l-96-96c0-17.696 14.336-32 32-32h96v-640c0-35.328 28.672-64 64-64h640c35.328 0 64 28.672 64 64v640h96c17.696 0 32 14.304 32 32l-96 96zM320 832c0 35.328 28.672 64 64 64h256c35.328 0 64-28.672 64-64v-64h-384v64zM832 32c0-17.696-14.304-32-32-32h-576c-17.664 0-32 14.304-32 32v608h640v-608zM512 64c17.696 0 32 14.304 32 32v448c0 17.696-14.304 32-32 32s-32-14.304-32-32v-448c0-17.696 14.304-32 32-32z" />
<glyph unicode="&#xe777;" glyph-name="ampersand2" d="M434.592-0.224c227.264 0 427.872 125.952 427.872 335.84 0 76.576-35.808 123.488-50.816 148.192-12.512 14.816-12.512 27.168 17.504 29.632 117.344 17.28 194.752 81.504 194.752 204.96 0 66.688-54.944 146.88-154.816 146.88-47.424 0-105.376-45.632-105.376-95.008 0-27.2 27.968-59.648 67.904-59.648 44.96 0 70.432 47.296 62.944 67.072-2.464 12.352-10.464 27.168 6.976 27.168 32.512 0 69.952-41.984 69.952-81.504 0-69.152-64.928-116.672-167.328-116.672-54.944 0-102.368 33.888-154.816 33.888-132.352 0-209.76-104.896-209.76-196.288 0-103.712 79.904-153.088 139.84-153.088 67.392 0 87.392 39.488 87.392 71.616 0 37.024-22.496 61.728-69.952 61.728-37.44 0-54.944-39.488-52.448-59.264 2.496-9.888-4.992-17.28-12.512-17.28-9.984 0-39.936 32.096-39.936 74.048 0 29.664 20 127.136 124.864 127.136 112.352 0 190.624-102.4 190.624-186.368 0-118.528-133.216-244.512-360.448-244.512-227.264 0-357.088 103.712-357.088 254.368 0 69.152 29.984 133.344 67.392 160.512 15.008 9.888 22.496 7.392 29.984-4.928 17.504-12.352 57.44-45.632 82.4-45.632 32.48 0 49.952 40.672 49.952 75.296 0 29.632-34.944 49.984-64.896 49.984s-49.952-17.888-62.432-22.816c-17.472 27.168-27.456 61.728-27.456 88.896 0 79.008 57.44 128.608 112.384 128.608 47.424 0 87.392-37.216 79.904-84.16-2.496-12.352-2.496-22.208 2.496-22.208 19.968 0 64.896 29.632 64.896 83.968 0 76.544-57.408 116.064-132.352 116.064-122.336 0-197.248-86.432-197.248-177.824 0-54.304 19.968-103.712 52.448-145.696-49.952-22.208-147.328-106.176-147.328-254.368 0.032-125.952 87.424-318.592 434.528-318.592z" />
<glyph unicode="&#xe779;" glyph-name="list3" d="M224 192h-192c-17.696 0-32-14.304-32-32v-192c0-17.696 14.304-32 32-32h192c17.696 0 32 14.304 32 32v192c0 17.696-14.304 32-32 32zM192 32c0-17.696-14.304-32-32-32h-64c-17.696 0-32 14.304-32 32v64c0 17.696 14.304 32 32 32h64c17.696 0 32-14.304 32-32v-64zM992 128h-576c-17.696 0-32-14.304-32-32v-64c0-17.696 14.304-32 32-32h576c17.696 0 32 14.304 32 32v64c0 17.696-14.304 32-32 32zM992 512h-576c-17.696 0-32-14.304-32-32v-64c0-17.696 14.304-32 32-32h576c17.696 0 32 14.304 32 32v64c0 17.696-14.304 32-32 32zM224 960h-192c-17.696 0-32-14.304-32-32v-192c0-17.696 14.304-32 32-32h192c17.696 0 32 46.304 32 64v160c0 17.696-14.304 32-32 32zM192 800c0-17.696-14.304-32-32-32h-64c-17.696 0-32 14.304-32 32v64c0 17.696 14.304 32 32 32h64c17.696 0 32-14.304 32-32v-64zM224 576h-192c-17.696 0-32-14.304-32-32v-192c0-17.696 14.304-32 32-32h192c17.696 0 32 14.304 32 32v192c0 17.696-14.304 32-32 32zM192 416c0-17.696-14.304-32-32-32h-64c-17.696 0-32 14.304-32 32v64c0 17.696 14.304 32 32 32h64c17.696 0 32-14.304 32-32v-64zM992 896h-576c-17.696 0-32-14.304-32-32v-64c0-17.696 14.304-32 32-32h576c17.696 0 32 14.304 32 32v64c0 17.696-14.304 32-32 32z" />
<glyph unicode="&#xe77a;" glyph-name="grid211" d="M224 576h-192c-17.696 0-32-14.304-32-32v-192c0-17.696 14.304-32 32-32h192c17.696 0 32 14.304 32 32v192c0 17.696-14.304 32-32 32zM192 416c0-17.696-14.304-32-32-32h-64c-17.696 0-32 14.304-32 32v64c0 17.696 14.304 32 32 32h64c17.696 0 32-14.304 32-32v-64zM224 960h-192c-17.696 0-32-14.304-32-32v-192c0-17.696 14.304-32 32-32h192c17.696 0 32 46.304 32 64v160c0 17.696-14.304 32-32 32zM192 800c0-17.696-14.304-32-32-32h-64c-17.696 0-32 14.304-32 32v64c0 17.696 14.304 32 32 32h64c17.696 0 32-14.304 32-32v-64zM224 192h-192c-17.696 0-32-14.304-32-32v-192c0-17.696 14.304-32 32-32h192c17.696 0 32 14.304 32 32v192c0 17.696-14.304 32-32 32zM192 32c0-17.696-14.304-32-32-32h-64c-17.696 0-32 14.304-32 32v64c0 17.696 14.304 32 32 32h64c17.696 0 32-14.304 32-32v-64zM608 576h-192c-17.696 0-32-14.304-32-32v-192c0-17.696 14.304-32 32-32h192c17.696 0 32 14.304 32 32v192c0 17.696-14.304 32-32 32zM576 416c0-17.696-14.304-32-32-32h-64c-17.696 0-32 14.304-32 32v64c0 17.696 14.304 32 32 32h64c17.696 0 32-14.304 32-32v-64zM608 192h-192c-17.696 0-32-14.304-32-32v-192c0-17.696 14.304-32 32-32h192c17.696 0 32 14.304 32 32v192c0 17.696-14.304 32-32 32zM576 32c0-17.696-14.304-32-32-32h-64c-17.696 0-32 14.304-32 32v64c0 17.696 14.304 32 32 32h64c17.696 0 32-14.304 32-32v-64zM992 576h-192c-17.696 0-32-14.304-32-32v-192c0-17.696 14.304-32 32-32h192c17.696 0 32 14.304 32 32v192c0 17.696-14.304 32-32 32zM960 416c0-17.696-14.304-32-32-32h-64c-17.696 0-32 14.304-32 32v64c0 17.696 14.304 32 32 32h64c17.696 0 32-14.304 32-32v-64zM992 960h-192c-17.696 0-32-14.304-32-32v-192c0-17.696 14.304-32 32-32h192c17.696 0 32 46.304 32 64v160c0 17.696-14.304 32-32 32zM960 800c0-17.696-14.304-32-32-32h-64c-17.696 0-32 14.304-32 32v64c0 17.696 14.304 32 32 32h64c17.696 0 32-14.304 32-32v-64zM608 960h-192c-17.696 0-32-14.304-32-32v-192c0-17.696 14.304-32 32-32h192c17.696 0 32 46.304 32 64v160c0 17.696-14.304 32-32 32zM576 800c0-17.696-14.304-32-32-32h-64c-17.696 0-32 14.304-32 32v64c0 17.696 14.304 32 32 32h64c17.696 0 32-14.304 32-32v-64zM992 192h-192c-17.696 0-32-14.304-32-32v-192c0-17.696 14.304-32 32-32h192c17.696 0 32 14.304 32 32v192c0 17.696-14.304 32-32 32zM960 32c0-17.696-14.304-32-32-32h-64c-17.696 0-32 14.304-32 32v64c0 17.696 14.304 32 32 32h64c17.696 0 32-14.304 32-32v-64z" />
<glyph unicode="&#xe77d;" glyph-name="stats" d="M960 960h-896c-35.328 0-64-28.672-64-64v-640c0-35.328 28.672-64 64-64h256l-128-256h32l230.4 256h115.2l230.4-256h32l-128 256h256c35.328 0 64 28.672 64 64v640c0 35.328-28.672 64-64 64zM960 288c0-17.696-14.304-32-32-32h-832c-17.696 0-32 14.304-32 32v576c0 17.696 14.304 32 32 32h832c17.696 0 32-14.304 32-32v-576zM668.096 459.808l-144.672 372.128-158.016-297.28-88.192 90.72-149.216-92.992 42.112-24.256 95.616 59.584 115.36-118.784 133.6 251.296 147.712-380.128 125.984 265.216 51.328-109.248 56.288 9.44-107.328 228.224-120.576-253.92z" />
<glyph unicode="&#xe77e;" glyph-name="stats1" d="M960 960h-896c-35.328 0-64-28.672-64-64v-640c0-35.328 28.672-64 64-64h256l-128-256h32l230.4 256h115.2l230.4-256h32l-128 256h256c35.328 0 64 28.672 64 64v640c0 35.328-28.672 64-64 64zM960 288c0-17.696-14.304-32-32-32h-832c-17.696 0-32 14.304-32 32v576c0 17.696 14.304 32 32 32h832c17.696 0 32-14.304 32-32v-576zM668.096 459.808l-144.672 372.128-158.016-297.28-88.192 90.72-149.216-92.992 42.112-24.256 95.616 59.584 115.36-118.784 133.6 251.296 147.712-380.128 125.984 265.216 51.328-109.248 56.288 9.44-107.328 228.224-120.576-253.92z" />
<glyph unicode="&#xe783;" glyph-name="floppy" d="M960-64h-896c-35.328 0-64 28.672-64 64v896c0 35.328 28.672 64 64 64h768l192-192v-768c0-35.328-28.672-64-64-64zM256 96c0-17.696 14.336-32 32-32h448c17.696 0 32 14.304 32 32v256c0 17.696-14.304 32-32 32h-448c-17.664 0-32-14.304-32-32v-256zM704 800c0 17.696-14.304 32-32 32s-32-14.304-32-32v-96c0-17.696 14.304-32 32-32s32 14.304 32 32v96zM896 736l-96 96h-32v-224c0-17.696-14.304-32-32-32h-448c-17.664 0-32 14.304-32 32v224h-96c-17.664 0-32-14.304-32-32v-704c0-17.696 14.336-32 32-32h32v352c0 17.696 14.336 32 32 32h576c17.696 0 32-14.304 32-32v-352h32c17.696 0 32 14.304 32 32v640z" />
<glyph unicode="&#xe784;" glyph-name="filter1" d="M1024 803.008c0-120.48-323.232-402.592-383.584-523.104v-249.248c0-0.672-0.384-1.152-0.448-1.824v-28.832c0-35.328-28.672-64-63.968-64h-128c-35.328 0-64 28.672-64 64v28.768c-0.064 0.672-0.48 1.152-0.48 1.888v249.248c-60.256 120.512-383.52 402.624-383.52 523.104h0.928c-0.192 1.344-0.928 2.496-0.928 3.776 0 68.512 229.344 153.216 512 153.216s512-84.704 512-153.216c0-1.28-0.736-2.432-0.96-3.776h0.96zM517.44 896.512c-248.032 0-453.888-39.84-453.888-112.896 0-73.024 205.856-144.16 453.888-144.16 248.064 0 441.92 71.136 441.92 144.16-0.032 73.056-193.856 112.896-441.92 112.896z" />
<glyph unicode="&#xe78b;" glyph-name="bookmark21" d="M768-64l-256 352-256-352c-35.328 0-64 28.672-64 64v896c0 35.328 28.672 64 64 64h512c35.328 0 64-28.672 64-64v-896c0-35.328-28.672-64-64-64zM752 896h-480c-8.832 0-16-7.168-16-16s7.168-16 16-16h480c8.832 0 16 7.168 16 16s-7.168 16-16 16z" />
<glyph unicode="&#xe78e;" glyph-name="disk1" d="M376.224 583.744c-74.976-74.976-74.976-196.544 0-271.52s196.544-74.976 271.52 0c75.008 75.008 75.008 196.576 0 271.52-74.976 75.008-196.512 75.008-271.52 0zM557.248 402.752c-24.992-24.992-65.504-24.992-90.496 0s-24.992 65.504 0 90.496 65.504 24.992 90.496 0 24.992-65.504 0-90.496zM874.016 810.016c-199.936 199.968-524.128 199.968-724.064 0-199.968-199.936-199.968-524.128 0-724.064 199.936-199.968 524.128-199.968 724.064 0 199.968 199.968 199.968 524.128 0 724.064zM692.992 266.976c-99.936-99.968-262.048-99.968-362.016 0-100 100-100 262.048 0 362.048 99.968 99.968 262.080 99.968 362.016 0 100-100 100-262.048 0-362.048zM715.616 651.648l113.152 158.368 45.248-45.248-158.4-113.12z" />
<glyph unicode="&#xe7b3;" glyph-name="calendar71" d="M864-32h-704c-35.328 0-64 28.672-64 64v704c0 35.36 28.672 64 64 64h64v-32c0-53.024 42.976-96 96-96 52.992 0 96 42.976 96 96v32h192v-32c0-53.024 43.008-96 96-96s96 42.976 96 96v32h64c35.328 0 64-28.64 64-64v-704c0-35.328-28.672-64-64-64zM864 576h-704v-544h704v544zM320 416h-96v96h96v-96zM320 256h-96v96h96v-96zM320 96h-96v96h96v-96zM480 416h-96v96h96v-96zM480 256h-96v96h96v-96zM480 96h-96v96h96v-96zM640 416h-96v96h96v-96zM640 256h-96v96h96v-96zM640 96h-96v96h96v-96zM800 416h-96v96h96v-96zM800 256h-96v96h96v-96zM800 96h-96v96h96v-96zM703.008 704c-34.816 0-63.008 28.224-63.008 63.008v65.984c0 34.816 28.192 63.008 63.008 63.008s63.008-28.192 63.008-63.008v-65.984c0-34.784-28.192-63.008-63.008-63.008zM319.008 704c-34.816 0-63.008 28.224-63.008 63.008v65.984c0 34.816 28.192 63.008 63.008 63.008s63.008-28.192 63.008-63.008v-65.984c0-34.784-28.224-63.008-63.008-63.008z" />
<glyph unicode="&#xe7b4;" glyph-name="calendar81" d="M896 0h-768c-35.328 0-64 28.672-64 64v672c0 35.328 28.672 64 64 64h64v-32c0-53.024 42.976-96 96-96s96 42.976 96 96v32h256v-32c0-53.024 43.008-96 96-96s96 42.976 96 96v32h64c35.328 0 64-28.672 64-64v-672c0-35.328-28.672-64-64-64zM896 576h-768v-512h768v512zM418.208 325.472c6.304 10.048 9.472 20.672 9.472 31.776 0 24.736-13.312 37.12-39.936 37.12-23.136 0-45.248-9.184-66.368-27.552v52.128c23.36 15.136 49.76 22.688 79.136 22.688 27.488 0 48.96-6.912 64.416-20.704s23.168-32.48 23.168-55.968c0-31.36-18.816-63.808-56.448-97.312l-55.328-49.12v-1.12h109.12v-49.12h-176.992v46.112l77.056 73.696c15.488 14.848 26.4 27.296 32.704 37.376zM634.784 218.688c8.448 6.496 12.672 15.552 12.672 27.2 0 12-5.216 21.248-15.648 27.744s-24.768 9.76-43.040 9.76h-24.192v45.376h22.304c35.008 0 52.512 11.616 52.512 34.88 0 21.888-13.44 32.8-40.32 32.8-17.984 0-35.488-5.824-52.512-17.44v48.384c18.88 9.504 40.864 14.24 65.984 14.24 27.488 0 48.896-6.176 64.224-18.56s22.976-28.448 22.976-48.192c0-35.136-17.824-57.12-53.44-65.984v-0.928c19.008-2.368 33.984-9.28 44.992-20.704s16.512-25.472 16.512-42.080c0-25.12-9.184-44.992-27.552-59.616s-43.744-21.952-76.128-21.952c-27.744 0-50.304 4.512-67.68 13.504v51.552c17.984-13.12 39.008-19.68 63.008-19.68 15.104-0.064 26.88 3.2 35.328 9.696zM735.008 704c-34.816 0-63.008 28.192-63.008 63.008v65.984c0 34.816 28.192 63.008 63.008 63.008s63.008-28.192 63.008-63.008v-65.984c0-34.816-28.192-63.008-63.008-63.008zM287.008 704c-34.816 0-63.008 28.192-63.008 63.008v65.984c0 34.816 28.192 63.008 63.008 63.008s63.008-28.192 63.008-63.008v-65.984c0-34.816-28.224-63.008-63.008-63.008z" />
<glyph unicode="&#xe7b5;" glyph-name="calendar9" d="M352 864h-64v-128h64v128zM704 704h-64v-64h64v64zM352 704h-64v-64h64v64zM734.016 768l1.984-160h-128v160h-224v-160h-128v160h-96v-768h672v768h-97.984zM352 97.984h-96v96h96v-96zM352 225.984h-96v96h96v-96zM352 353.984h-96v96h96v-96zM480 97.984h-96v96h96v-96zM480 225.984h-96v96h96v-96zM480 353.984h-96v96h96v-96zM608 97.984h-96v96h96v-96zM608 225.984h-96v96h96v-96zM608 353.984h-96v96h96v-96zM736 97.984h-96v96h96v-96zM736 225.984h-96v96h96v-96zM736 353.984h-96v96h96v-96zM704 864h-64v-128h64v128z" />
<glyph unicode="&#xe7b6;" glyph-name="file21" d="M670.016 831.008h-446.016v-766.016h320v64h-256v638.016h320v-96h128v-352h64v385.984l-129.984 126.016zM736 255.008h-64v-64h-64v-64h64v-62.016h64v64h64v62.016h-64v64z" />
<glyph unicode="&#xe7b7;" glyph-name="file31" d="M670.016 831.008h-446.016v-766.016h320v64h-256v638.016h320v-96h128v-352h64v385.984l-129.984 126.016zM608 159.008l192 1.984v62.016h-192v-64z" />
<glyph unicode="&#xe7b8;" glyph-name="file41" d="M352 480h32v32h-32v-32zM352 384h32v32h-32v-32zM352 576h32v32h-32v-32zM352 288h32v32h-32v-32zM352 192h32v32h-32v-32zM416 384h256v32h-256v-32zM416 576h256v32h-256v-32zM670.016 832h-446.016v-768h576v640l-129.984 128zM736 129.984h-448v638.016h320v-94.016h128v-544zM416 288h256v32h-256v-32zM416 480h256v32h-256v-32zM416 192h256v32h-256v-32z" />
<glyph unicode="&#xe7bb;" glyph-name="tablet3" d="M736.032 832h-480c-35.36 0-64.032-28.672-64.032-64v-640c0-35.328 28.672-64 64.032-64h480c35.328 0 63.968 28.672 63.968 64v640c0 35.328-28.64 64-63.968 64zM496 96c-17.664 0-31.968 14.304-31.968 32s14.304 32 31.968 32c17.696 0 32.032-14.304 32.032-32s-14.336-32-32.032-32zM735.712 193.984h-480.832v573.184h480.832v-573.184z" />
<glyph unicode="&#xe7bd;" glyph-name="monitor2" d="M544 161.984h-96v-49.984l-96-16v-32h286.016v30.016l-94.016 17.984v49.984zM864 832h-736c-35.36 0-64-28.64-64-64v-448c0-35.328 28.64-64 64-64h736c35.36 0 64 28.672 64 64v448c0 35.36-28.64 64-64 64zM492 304c-17.664 0-32 14.336-32 32 0 17.696 14.336 32 32 32 17.696 0 32-14.304 32-32 0-17.664-14.336-32-32-32zM864 416h-736v352h736v-352z" />
<glyph unicode="&#xe7bf;" glyph-name="tv3" d="M896.48 33.792h-65.568v-33.792h-97.376v33.792h-445.056v-33.792h-97.376l0.032 33.792h-63.616c-35.136 0-63.584 28.48-63.584 63.584v605.984c0 35.104 28.48 63.584 63.584 63.584h222.528c0 0 14.016 19.456 39.648 37.184l-81.696 81.728 22.496 22.464 88.16-88.128c16.768 7.2 36.192 12.32 58.56 12.32 23.776 0 43.936-5.856 61.12-13.76l89.568 89.568 22.464-22.464-83.648-83.68c23.328-17.184 35.68-35.264 35.68-35.264h294.048c35.136 0 63.584-28.48 63.584-63.584v-605.984c0.032-35.104-28.448-63.552-63.552-63.552zM669.984 639.776c0 17.568-14.24 31.776-31.808 31.776h-445.056c-17.568 0-31.808-14.208-31.808-31.776v-478.848c0-17.568 14.24-31.776 31.808-31.776h445.024c17.568 0 31.808 14.208 31.808 31.776v478.848zM769.344 129.152h93.344v31.776h-93.344v-31.776zM769.344 192.736h93.344v31.744h-93.344v-31.744zM769.344 258.304h93.344v31.776h-93.344v-31.776zM769.344 321.888h93.344v31.808h-93.344v-31.808zM813.792 670.784c-26.304 0-47.68-21.344-47.68-47.68s21.376-47.68 47.68-47.68c26.336 0 47.68 21.344 47.68 47.68s-21.344 47.68-47.68 47.68zM813.792 544c-26.304 0-47.68-21.312-47.68-47.648s21.376-47.68 47.68-47.68c26.336 0 47.68 21.344 47.68 47.68s-21.344 47.648-47.68 47.648z" />
<glyph unicode="&#xe7c9;" glyph-name="drink" d="M737.76 675.008c17.824 0 32.256-14.432 32.256-32.256l-58.464-642.976c0-17.824-14.432-32.256-32.256-32.256h-334.624c-17.824 0-32.256 14.432-32.256 32.256l-58.4 642.976c0 17.824 14.432 32.256 32.256 32.256h288.32l34.112 173.952 154.848 79.52-11.136-41.536-114.944-57.632-30.016-154.304h130.304zM560.448 449.248h128.928l-36.288-417.216h-282.176l-36.288 417.216h192.928l40.288 193.504h-281.6l58.432-642.976h334.592l58.464 642.976h-137.024l-40.256-193.504z" />
<glyph unicode="&#xe7d2;" glyph-name="download11" d="M691.2 704h-352l-211.2-288v-160c0-35.328 28.672-64 64-64h640c35.328 0 64 28.672 64 64v160l-204.8 288zM718.88 415.264l-65.664-96.064-274.816 0.64-70.464 95.808-130.752 0.768 181.184 255.2h313.632l179.2-255.2-132.32-1.152zM556 608c0 17.664-10.336 32-28 32-17.696 0-30.016-14.336-30.016-32v-126.016l-77.984-1.984 108-121.984 105.984 121.984-78.016 1.984v126.016z" />
<glyph unicode="&#xe7d7;" glyph-name="cancel3" d="M512 32c-229.76 0-416 186.24-416 416s186.24 416 416 416 416-186.24 416-416-186.24-416-416-416zM702.752 569.312c7.808 7.808 7.808 20.512 0 28.32l-42.496 42.464c-7.808 7.808-20.512 7.808-28.32 0l-120.352-120.352-120.352 120.352c-7.808 7.808-20.512 7.808-28.32 0l-42.496-42.464c-7.808-7.808-7.808-20.512 0-28.32l120.384-120.384-120.384-120.32c-7.808-7.808-7.808-20.512 0-28.32l42.496-42.496c7.808-7.808 20.512-7.808 28.32 0l120.352 120.384 120.352-120.384c7.808-7.808 20.512-7.808 28.32 0l42.496 42.496c7.808 7.808 7.808 20.512 0 28.32l-120.384 120.32 120.384 120.384z" />
<glyph unicode="&#xe7d8;" glyph-name="cancel4" d="M512 32c-229.76 0-416 186.24-416 416s186.24 416 416 416 416-186.24 416-416-186.24-416-416-416zM512 768c-176.704 0-320-143.296-320-320s143.296-320 320-320c176.736 0 320 143.296 320 320s-143.264 320-320 320zM657.184 334.88l-32.448-32.448c-5.952-5.952-15.616-5.952-21.6 0l-91.84 91.84-91.84-91.84c-5.984-5.952-15.616-5.952-21.6 0l-32.448 32.448c-5.952 5.952-5.952 15.616 0 21.6l91.872 91.808-91.872 91.84c-5.952 5.984-5.952 15.648 0 21.632l32.448 32.416c5.984 5.984 15.616 5.984 21.6 0l91.84-91.84 91.84 91.84c5.984 5.984 15.648 5.984 21.6 0l32.448-32.416c5.952-5.984 5.952-15.648 0-21.632l-91.872-91.84 91.872-91.808c5.952-5.984 5.952-15.68 0-21.6z" />
<glyph unicode="&#xe7d9;" glyph-name="plus6" d="M496 16c-229.76 0-416 186.24-416 416s186.24 416 416 416 416-186.24 416-416-186.24-416-416-416zM702.016 449.984c0 17.664-14.336 32-32 32h-128v128c0 17.664-14.304 32-32 32h-32c-17.696 0-32-14.336-32-32v-128h-128c-17.696 0-32-14.336-32-32v-32c0-17.696 14.304-32 32-32h128v-128c0-17.696 14.304-32 32-32h32c17.696 0 32 14.304 32 32v128h128c17.664 0 32 14.304 32 32v32z" />
<glyph unicode="&#xe7da;" glyph-name="plus7" d="M512 32c-229.76 0-416 186.24-416 416s186.24 416 416 416 416-186.24 416-416-186.24-416-416-416zM512 768c-176.704 0-320-143.264-320-320 0-176.704 143.296-320 320-320 176.736 0 320 143.296 320 320 0 176.736-143.264 320-320 320zM639.616 416h-96v-96c0-17.696-14.336-32-32-32-17.696 0-32 14.304-32 32v96h-96c-17.696 0-32 14.336-32 32s14.304 32 32 32h96v96c0 17.696 14.304 32 32 32 17.664 0 32-14.304 32-32v-96h96c17.664 0 32-14.336 32-32s-14.336-32-32-32z" />
<glyph unicode="&#xe7db;" glyph-name="minus5" d="M496 848c-229.76 0-416-186.24-416-416s186.24-416 416-416c229.76 0 416 186.24 416 416s-186.24 416-416 416zM704 420c0-17.696-14.336-32-32-32h-352c-17.696 0-32 14.304-32 32v32c0 17.664 14.304 32 32 32h352c17.664 0 32-14.336 32-32v-32z" />
<glyph unicode="&#xe7dc;" glyph-name="minus6" d="M512 864c-229.76 0-416-186.24-416-416s186.24-416 416-416 416 186.24 416 416-186.24 416-416 416zM512 128c-176.704 0-320 143.296-320 320 0 176.736 143.296 320 320 320 176.736 0 320-143.264 320-320 0-176.704-143.264-320-320-320zM631.616 480h-256c-17.696 0-32-14.336-32-32 0-17.696 14.304-32 32-32h256c17.696 0 32 14.304 32 32 0 17.664-14.304 32-32 32z" />
<glyph unicode="&#xe7df;" glyph-name="cog8" d="M831.84 349.824h-42.368c-6.88-24.928-16.736-48.576-29.376-70.496l39.168-39.136c25.056-25.056 25.056-65.696 0-90.752l-22.688-22.688c-25.056-25.056-65.696-25.056-90.752 0l-39.424 39.392c-21.856-12.448-45.408-22.144-70.208-28.896v-41.088c0-35.424-28.704-64.16-64.16-64.16h-32.064c-35.424 0-64.192 28.704-64.192 64.16v41.088c-24.768 6.752-48.352 16.48-70.208 28.896l-39.392-39.392c-25.024-25.056-65.664-25.056-90.72 0l-22.72 22.688c-25.056 25.056-25.056 65.696 0 90.752l39.168 39.136c-12.64 21.952-22.496 45.568-29.408 70.496h-42.336c-35.456 0-64.16 28.704-64.16 64.128v32.096c0 35.424 28.704 64.16 64.16 64.16h41.856c6.624 24.672 16.096 48.16 28.384 69.952l-37.664 37.632c-25.056 25.056-25.056 65.696 0 90.752l22.688 22.656c25.056 25.056 65.696 25.056 90.72 0l36.896-36.896c22.592 13.152 46.976 23.392 72.704 30.4v43.136c0.032 35.456 28.8 64.16 64.224 64.16h32.064c35.424 0 64.16-28.704 64.16-64.16v-43.104c25.792-7.040 50.144-17.28 72.704-30.432l36.896 36.896c25.056 25.056 65.696 25.056 90.752 0l22.688-22.656c25.056-25.056 25.056-65.696 0-90.752l-37.632-37.632c12.288-21.792 21.76-45.28 28.416-69.984h41.856c35.424 0 64.16-28.736 64.16-64.16v-32.096c-0.032-35.392-28.736-64.096-64.192-64.096zM496 605.44c-97.44 0-176.448-79.008-176.448-176.448s79.008-176.448 176.448-176.448 176.448 79.008 176.448 176.448-79.008 176.448-176.448 176.448zM496 350.816c-44.288 0-80.224 35.872-80.224 80.192 0 44.288 35.936 80.192 80.224 80.192s80.192-35.904 80.192-80.192c0-44.32-35.904-80.192-80.192-80.192z" />
<glyph unicode="&#xe7e0;" glyph-name="cogs3" d="M680.576 254.752l22.688 22.688c25.056 25.056 25.056 65.696 0 90.752l-39.168 39.136c12.608 21.952 22.496 45.568 29.376 70.496h42.368c35.424 0 64.16 28.736 64.16 64.16v32.064c0 35.424-28.704 64.16-64.16 64.16h-41.856c-6.656 24.672-16.096 48.16-28.384 69.952l37.664 37.632c25.056 25.056 25.056 65.696 0 90.752l-22.688 22.656c-25.056 25.056-65.696 25.056-90.752 0l-36.896-36.896c-22.56 13.152-46.944 23.392-72.704 30.432v43.104c-0.032 35.456-28.768 64.16-64.192 64.16h-32.064c-35.424 0-64.192-28.704-64.192-64.16v-43.104c-25.76-7.040-50.112-17.28-72.704-30.432l-36.928 36.928c-25.024 25.056-65.664 25.056-90.72 0l-22.688-22.656c-25.056-25.056-25.056-65.696 0-90.752l37.632-37.664c-12.256-21.792-21.76-45.28-28.384-69.984h-41.824c-35.456 0.032-64.16-28.704-64.16-64.16v-32.064c0-35.424 28.704-64.16 64.16-64.16h42.336c6.912-24.928 16.768-48.544 29.408-70.496l-39.168-39.136c-25.056-25.056-25.056-65.696 0-90.752l22.688-22.688c25.056-25.056 65.696-25.056 90.72 0l39.392 39.392c21.888-12.448 45.408-22.144 70.208-28.896v-41.088c0-35.392 28.736-64.16 64.192-64.16h32.064c35.424 0 64.16 28.736 64.16 64.16v41.088c24.8 6.752 48.384 16.48 70.208 28.896l39.392-39.392c25.12-25.024 65.728-25.024 90.816 0.032zM400 380.576c-97.44 0-176.448 78.976-176.448 176.448 0 97.44 79.008 176.448 176.448 176.448s176.448-79.008 176.448-176.448c0-97.472-79.008-176.448-176.448-176.448zM400 639.2c-44.32 0-80.224-35.904-80.224-80.192s35.904-80.192 80.224-80.192c44.288 0 80.192 35.904 80.192 80.192s-35.904 80.192-80.192 80.192zM801.984 36.416c-21.504 0-38.912-17.408-38.912-38.912 0-21.472 17.408-38.88 38.912-38.88 21.472 0 38.912 17.408 38.912 38.88 0 21.504-17.44 38.912-38.912 38.912zM964.864 35.936h-20.288c-3.232 11.968-7.84 23.36-13.792 33.952l18.24 18.24c12.16 12.16 12.16 31.872 0 44l-11.008 11.008c-12.16 12.16-31.84 12.16-44 0l-17.92-17.888c-10.944 6.368-22.784 11.328-35.264 14.752v20.864c0 17.184-13.952 31.136-31.136 31.136h-15.552c-17.184 0-31.136-13.952-31.136-31.136v-20.864c-12.512-3.424-24.32-8.384-35.264-14.752l-17.92 17.888c-12.16 12.16-31.872 12.16-44 0l-11.008-11.008c-12.16-12.128-12.16-31.84 0-44l18.24-18.24c-5.984-10.56-10.56-21.984-13.792-33.952h-20.288c-17.184 0-31.136-13.952-31.136-31.136v-15.552c0-17.184 13.952-31.136 31.136-31.136h20.544c3.328-12.064 8.128-23.52 14.24-34.176l-18.976-18.976c-12.16-12.16-12.16-31.84 0-44.032l11.008-11.008c12.128-12.128 31.84-12.128 44 0l19.104 19.136c10.624-6.016 22.016-10.752 34.048-14.016v-19.936c0-17.184 13.952-31.136 31.136-31.136h15.552c17.184 0 31.136 13.952 31.136 31.136v19.936c12.032 3.264 23.424 7.968 34.016 14.016l19.136-19.136c12.16-12.128 31.84-12.128 44 0l11.008 11.008c12.16 12.192 12.16 31.872 0 44.032l-18.976 18.976c6.080 10.656 10.912 22.112 14.24 34.176h20.544c17.184 0 31.136 13.952 31.136 31.136v15.552c0.128 17.216-13.824 31.136-31.008 31.136zM801.984-89.024c-47.264 0-85.568 38.304-85.568 85.6 0 47.264 38.304 85.568 85.568 85.568s85.568-38.304 85.568-85.568c0-47.296-38.304-85.6-85.568-85.6z" />
<glyph unicode="&#xe7e1;" glyph-name="cog9" d="M850.336 496h61.664v-96h-61.664c-4.192-30.592-11.968-60.032-23.488-87.584l53.408-30.848-48-83.136-54.336 31.36c-18.656-23.552-40.32-44.544-64.352-62.656l32-55.392-83.136-48-32.672 56.544c-27.168-10.592-55.84-17.984-85.792-21.536v-66.752h-96v68.576c-29.184 4.512-57.312 12.192-83.648 23.392l-34.784-60.224-83.136 48 35.616 61.696c-22.304 17.888-42.208 38.496-59.584 61.216l-62.752-36.224-48 83.136 63.328 36.576c-10.272 25.952-17.472 53.376-21.376 81.888h-73.632v96h73.664c3.904 28.544 11.104 55.968 21.376 81.888l-63.328 36.576 48 83.136 62.752-36.224c17.376 22.72 37.28 43.328 59.584 61.248l-35.616 61.6 83.136 48 34.784-60.224c26.336 11.2 54.464 18.912 83.648 23.392v68.576h96v-66.72c29.952-3.552 58.624-10.944 85.792-21.536l32.672 56.544 83.136-48-32-55.424c24.032-18.112 45.696-39.104 64.352-62.656l54.336 31.36 48-83.136-53.408-30.848c11.488-27.552 19.264-56.992 23.456-87.584zM495.712 656.288c-114.88 0-208-93.12-208-208s93.12-208 208-208 208 93.12 208 208-93.12 208-208 208zM496 368c-44.192 0-80 35.808-80 80s35.808 80 80 80 80-35.808 80-80-35.808-80-80-80z" />
<glyph unicode="&#xe7e4;" glyph-name="suitcase" d="M864 32h-128v672h128c35.328 0 64-28.672 64-64v-544c0-35.328-28.672-64-64-64zM320 704v0 64c0 35.36 28.672 64 64 64h224c35.328 0 64-28.64 64-64v-736h-352v672zM384 704h224c0 0 0 14.336 0 32 0 17.696-14.336 32-32 32h-160c-17.696 0-32-14.304-32-32 0-17.664 0-32 0-32zM64 96v544c0 35.328 28.672 64 64 64h128v-672h-128c-35.328 0-64 28.672-64 64z" />
<glyph unicode="&#xe7e5;" glyph-name="suitcase2" d="M864 32h-736c-35.36 0-64 28.672-64 64v384c0 0 167.072-85.92 320-121.088v-38.912c0-17.696 14.304-32 32-32h160c17.664 0 32 14.304 32 32v38.912c152.896 35.168 320 121.088 320 121.088v-384c0-35.328-28.672-64-64-64zM544 416c17.664 0 32-14.304 32-32v-32c0-17.696-14.336-32-32-32h-96c-17.696 0-32 14.304-32 32v32c0 17.696 14.304 32 32 32h96zM608 416c0 17.696-14.336 32-32 32h-160c-17.696 0-32-14.304-32-32v-28.672c-152.928 36.224-320 124.672-320 124.672v128c0 35.328 28.64 64 64 64h192v64c0 35.328 28.672 64 64 64h224c35.328 0 64-28.672 64-64v-64h192c35.328 0 64-28.672 64-64v-128c0 0-167.104-88.448-320-124.672v28.672zM608 736c0 17.696-14.336 32-32 32h-160c-17.696 0-32-14.304-32-32 0-17.664 0-32 0-32h224c0 0 0 14.336 0 32z" />
<glyph unicode="&#xe7e6;" glyph-name="suitcase3" d="M896 32h-768c-35.328 0-64 28.672-64 64v288h128v-96h128v96h384v-96h128v96h128v-288c0-35.328-28.672-64-64-64zM736 320v128h64v-128h-64zM224 320v128h64v-128h-64zM832 480h-128v-64h-384v64h-128v-64h-128v224c0 35.328 28.672 64 64 64h768c35.328 0 64-28.672 64-64v-224h-128v64zM608 800.672h-192v-64.672h-64v31.328h32v96.672h256.672v-96h31.328v-32h-64v64.672z" />
</font>
</defs>
</svg>
